  0
SECTION
  2
HEADER
  9
$ACADVER
  1
AC1014
  9
$ACADMAINTVER
 70
     9
  9
$DWGCODEPAGE
  3
ANSI_932
  9
$INSBASE
 10
0.0
 20
0.0
 30
0.0
  9
$EXTMIN
 10
0.0
 20
0.0
 30
0.0
  9
$EXTMAX
 10
420.0
 20
594.0
 30
0.0
  9
$LIMMIN
 10
0.0
 20
0.0
  9
$LIMMAX
 10
420.0
 20
594.0
  9
$ORTHOMODE
 70
     1
  9
$REGENMODE
 70
     1
  9
$FILLMODE
 70
     1
  9
$QTEXTMODE
 70
     0
  9
$MIRRTEXT
 70
     0
  9
$DRAGMODE
 70
     2
  9
$LTSCALE
 40
2.0
  9
$OSMODE
 70
   567
  9
$ATTMODE
 70
     1
  9
$TEXTSIZE
 40
0.2
  9
$TRACEWID
 40
0.05
  9
$TEXTSTYLE
  7
STANDARD
  9
$CLAYER
  8
0
  9
$CELTYPE
  6
BYLAYER
  9
$CECOLOR
 62
   256
  9
$CELTSCALE
 40
1.0
  9
$DELOBJ
 70
     1
  9
$DISPSILH
 70
     0
  9
$DIMSCALE
 40
3.0
  9
$DIMASZ
 40
2.0
  9
$DIMEXO
 40
2.0
  9
$DIMDLI
 40
7.0
  9
$DIMRND
 40
0.0
  9
$DIMDLE
 40
0.0
  9
$DIMEXE
 40
0.5
  9
$DIMTP
 40
0.0
  9
$DIMTM
 40
0.0
  9
$DIMTXT
 40
2.0
  9
$DIMCEN
 40
0.09
  9
$DIMTSZ
 40
0.0
  9
$DIMTOL
 70
     0
  9
$DIMLIM
 70
     0
  9
$DIMTIH
 70
     0
  9
$DIMTOH
 70
     0
  9
$DIMSE1
 70
     0
  9
$DIMSE2
 70
     0
  9
$DIMTAD
 70
     1
  9
$DIMZIN
 70
     8
  9
$DIMBLK
  1
OPEN
  9
$DIMASO
 70
     1
  9
$DIMSHO
 70
     1
  9
$DIMPOST
  1

  9
$DIMAPOST
  1

  9
$DIMALT
 70
     0
  9
$DIMALTD
 70
     2
  9
$DIMALTF
 40
0.03937
  9
$DIMLFAC
 40
1.0
  9
$DIMTOFL
 70
     1
  9
$DIMTVP
 40
0.0
  9
$DIMTIX
 70
     0
  9
$DIMSOXD
 70
     0
  9
$DIMSAH
 70
     0
  9
$DIMBLK1
  1

  9
$DIMBLK2
  1

  9
$DIMSTYLE
  2
G1
  9
$DIMCLRD
 70
     0
  9
$DIMCLRE
 70
     0
  9
$DIMCLRT
 70
     7
  9
$DIMTFAC
 40
1.0
  9
$DIMGAP
 40
0.8
  9
$DIMJUST
 70
     0
  9
$DIMSD1
 70
     0
  9
$DIMSD2
 70
     0
  9
$DIMTOLJ
 70
     1
  9
$DIMTZIN
 70
     0
  9
$DIMALTZ
 70
     0
  9
$DIMALTTZ
 70
     0
  9
$DIMFIT
 70
     3
  9
$DIMUPT
 70
     0
  9
$DIMUNIT
 70
     2
  9
$DIMDEC
 70
     2
  9
$DIMTDEC
 70
     2
  9
$DIMALTU
 70
     2
  9
$DIMALTTD
 70
     2
  9
$DIMTXSTY
  7
STANDARD
  9
$DIMAUNIT
 70
     0
  9
$LUNITS
 70
     2
  9
$LUPREC
 70
     4
  9
$SKETCHINC
 40
0.1
  9
$FILLETRAD
 40
5.0
  9
$AUNITS
 70
     0
  9
$AUPREC
 70
     0
  9
$MENU
  1
.
  9
$ELEVATION
 40
0.0
  9
$PELEVATION
 40
0.0
  9
$THICKNESS
 40
0.0
  9
$LIMCHECK
 70
     0
  9
$BLIPMODE
 70
     0
  9
$CHAMFERA
 40
0.0
  9
$CHAMFERB
 40
0.0
  9
$CHAMFERC
 40
0.0
  9
$CHAMFERD
 40
0.0
  9
$SKPOLY
 70
     0
  9
$TDCREATE
 40
2452110.000000000
  9
$TDUPDATE
 40
2454992.117890254
  9
$TDINDWG
 40
0.4570987037
  9
$TDUSRTIMER
 40
0.4570972569
  9
$USRTIMER
 70
     1
  9
$ANGBASE
 50
0.0
  9
$ANGDIR
 70
     0
  9
$PDMODE
 70
     0
  9
$PDSIZE
 40
0.0
  9
$PLINEWID
 40
0.0
  9
$COORDS
 70
     1
  9
$SPLFRAME
 70
     0
  9
$SPLINETYPE
 70
     6
  9
$SPLINESEGS
 70
     8
  9
$ATTDIA
 70
     0
  9
$ATTREQ
 70
     1
  9
$HANDLING
 70
 10241
  9
$HANDSEED
  5
9435
  9
$SURFTAB1
 70
     6
  9
$SURFTAB2
 70
     6
  9
$SURFTYPE
 70
     6
  9
$SURFU
 70
     6
  9
$SURFV
 70
     6
  9
$UCSNAME
  2

  9
$UCSORG
 10
0.0
 20
0.0
 30
0.0
  9
$UCSXDIR
 10
1.0
 20
0.0
 30
0.0
  9
$UCSYDIR
 10
0.0
 20
1.0
 30
0.0
  9
$PUCSNAME
  2

  9
$PUCSORG
 10
0.0
 20
0.0
 30
0.0
  9
$PUCSXDIR
 10
1.0
 20
0.0
 30
0.0
  9
$PUCSYDIR
 10
0.0
 20
1.0
 30
0.0
  9
$USERI1
 70
     0
  9
$USERI2
 70
     0
  9
$USERI3
 70
     0
  9
$USERI4
 70
     0
  9
$USERI5
 70
     0
  9
$USERR1
 40
0.0
  9
$USERR2
 40
0.0
  9
$USERR3
 40
0.0
  9
$USERR4
 40
0.0
  9
$USERR5
 40
0.0
  9
$WORLDVIEW
 70
     1
  9
$SHADEDGE
 70
     3
  9
$SHADEDIF
 70
    70
  9
$TILEMODE
 70
     1
  9
$MAXACTVP
 70
    48
  9
$PINSBASE
 10
0.0
 20
0.0
 30
0.0
  9
$PLIMCHECK
 70
     0
  9
$PEXTMIN
 10
1.000000000000000E+20
 20
1.000000000000000E+20
 30
1.000000000000000E+20
  9
$PEXTMAX
 10
-1.000000000000000E+20
 20
-1.000000000000000E+20
 30
-1.000000000000000E+20
  9
$PLIMMIN
 10
0.0
 20
0.0
  9
$PLIMMAX
 10
12.0
 20
9.0
  9
$UNITMODE
 70
     0
  9
$VISRETAIN
 70
     1
  9
$PLINEGEN
 70
     0
  9
$PSLTSCALE
 70
     1
  9
$TREEDEPTH
 70
  3020
  9
$PICKSTYLE
 70
     0
  9
$CMLSTYLE
  2
STANDARD
  9
$CMLJUST
 70
     0
  9
$CMLSCALE
 40
1.0
  9
$PROXYGRAPHICS
 70
     1
  9
$MEASUREMENT
 70
     0
  0
ENDSEC
  0
SECTION
  2
CLASSES
  0
CLASS
  1
ACDBDICTIONARYWDFLT
  2
AcDbDictionaryWithDefault
  3
AutoCAD 2000
 90
        0
280
     0
281
     0
  0
CLASS
  1
ACDBPLACEHOLDER
  2
AcDbPlaceHolder
  3
AutoCAD 2000
 90
        0
280
     0
281
     0
  0
CLASS
  1
LAYOUT
  2
AcDbLayout
  3
AutoCAD 2000
 90
        0
280
     0
281
     0
  0
CLASS
  1
DICTIONARYVAR
  2
AcDbDictionaryVar
  3
AutoCAD 2000
 90
        0
280
     0
281
     0
  0
CLASS
  1
TABLESTYLE
  2
AcDbTableStyle
  3
ObjectDBX Classes
 90
     2047
280
     0
281
     0
  0
CLASS
  1
SORTENTSTABLE
  2
AcDbSortentsTable
  3
AutoCAD 2000
 90
        0
280
     0
281
     0
  0
CLASS
  1
ACAD_PROXY_OBJECT_WRAPPER
  2
AcDbProxyObjectWrapper
  3
AutoCAD 2000
 90
        0
280
     0
281
     0
  0
CLASS
  1
LONG_TRANSACTION
  2
AcDbLongTransaction
  3
AutoCAD 2000
 90
        0
280
     0
281
     0
  0
CLASS
  1
LWPOLYLINE
  2
AcDbPolyline
  3
AutoCAD 2000
 90
        0
280
     0
281
     1
  0
CLASS
  1
HATCH
  2
AcDbHatch
  3
AutoCAD 2000
 90
        0
280
     0
281
     1
  0
CLASS
  1
XRECORD
  2
AcDbXrecord
  3
AutoCAD 2000
 90
        0
280
     0
281
     0
  0
CLASS
  1
LONG_TRANSACTION
  2
AcDbLongTransaction
  3
AutoCAD 2000
 90
        0
280
     0
281
     0
  0
CLASS
  1
LWPOLYLINE
  2
AcDbPolyline
  3
AutoCAD 2000
 90
        0
280
     0
281
     1
  0
CLASS
  1
HATCH
  2
AcDbHatch
  3
AutoCAD 2000
 90
        0
280
     0
281
     1
  0
CLASS
  1
XRECORD
  2
AcDbXrecord
  3
AutoCAD 2000
 90
        0
280
     0
281
     0
  0
ENDSEC
  0
SECTION
  2
TABLES
  0
TABLE
  2
VPORT
  5
8
330
0
100
AcDbSymbolTable
 70
     3
  0
VPORT
  5
9411
330
8
100
AcDbSymbolTableRecord
100
AcDbViewportTableRecord
  2
*ACTIVE
 70
     0
 10
0.0
 20
0.0
 11
1.0
 21
1.0
 12
209.9904030990792
 22
296.9909520121444
 13
0.0
 23
0.0
 14
1.0
 24
1.0
 15
0.0
 25
0.0
 16
0.0
 26
0.0
 36
1.0
 17
0.0
 27
0.0
 37
0.0
 40
601.1463352429991
 41
1.933867735470941
 42
50.0
 43
0.0
 44
0.0
 50
0.0
 51
0.0
 71
     0
 72
   100
 73
     1
 74
     1
 75
     0
 76
     0
 77
     0
 78
     0
  0
ENDTAB
  0
TABLE
  2
LTYPE
  5
5
330
0
100
AcDbSymbolTable
 70
     8
  0
LTYPE
  5
13
330
5
100
AcDbSymbolTableRecord
100
AcDbLinetypeTableRecord
  2
BYBLOCK
 70
     0
  3

 72
    65
 73
     0
 40
0.0
  0
LTYPE
  5
14
330
5
100
AcDbSymbolTableRecord
100
AcDbLinetypeTableRecord
  2
BYLAYER
 70
     0
  3

 72
    65
 73
     0
 40
0.0
  0
LTYPE
  5
15
330
5
100
AcDbSymbolTableRecord
100
AcDbLinetypeTableRecord
  2
CONTINUOUS
 70
     0
  3
Solid line
 72
    65
 73
     0
 40
0.0
  0
LTYPE
  5
22
330
5
100
AcDbSymbolTableRecord
100
AcDbLinetypeTableRecord
  2
DASHED
 70
     0
  3
__ __ __ __ __ __ __ __ __ __ __ __ __ __ __
 72
    65
 73
     2
 40
3.2
 49
2.0
 74
     0
 49
-1.199999999999999
 74
     0
  0
LTYPE
  5
23
330
5
100
AcDbSymbolTableRecord
100
AcDbLinetypeTableRecord
  2
CENTER
 70
     0
  3
____ _ ____ _ ____ _ ____ _ ____ _ ____ _ ____
 72
    65
 73
     4
 40
10.6
 49
7.0
 74
     0
 49
-1.199999999999999
 74
     0
 49
1.199999999999999
 74
     0
 49
-1.199999999999999
 74
     0
  0
LTYPE
  5
24
330
5
100
AcDbSymbolTableRecord
100
AcDbLinetypeTableRecord
  2
HIDDEN
 70
     0
  3
_ _ _ _ _ _ _ _ _ _ _ _ _ _ _ _ _ _ _ _ _ _ _
 72
    65
 73
     2
 40
6.4
 49
2.6
 74
     0
 49
-3.799999999999998
 74
     0
  0
LTYPE
  5
25
330
5
100
AcDbSymbolTableRecord
100
AcDbLinetypeTableRecord
  2
PHANTOM
 70
     0
  3
_____ _ _ _____ _ _ _____ _ _ _____ _ _ _____
 72
    65
 73
     6
 40
12.27999999999999
 49
8.38
 74
     0
 49
-1.199999999999999
 74
     0
 49
0.5
 74
     0
 49
-0.5
 74
     0
 49
0.5
 74
     0
 49
-1.199999999999999
 74
     0
  0
LTYPE
  5
26
330
5
100
AcDbSymbolTableRecord
100
AcDbLinetypeTableRecord
  2
DOT
 70
     0
  3
...............................................
 72
    65
 73
     2
 40
0.6
 49
0.3
 74
     0
 49
-0.3
 74
     0
  0
LTYPE
  5
27
330
5
100
AcDbSymbolTableRecord
100
AcDbLinetypeTableRecord
  2
DASHDOT
 70
     0
  3
__ . __ . __ . __ . __ . __ . __ . __ . __ . __
 72
    65
 73
     4
 40
16.0
 49
10.0
 74
     0
 49
-2.0
 74
     0
 49
2.0
 74
     0
 49
-2.0
 74
     0
  0
LTYPE
  5
25D7
330
5
100
AcDbSymbolTableRecord
100
AcDbLinetypeTableRecord
  2
DIVIDE
 70
     0
  3
____ . . ____ . . ____ . . ____ . . ____ . . __
 72
    65
 73
     6
 40
1.25
 49
0.5
 74
     0
 49
-0.25
 74
     0
 49
0.0
 74
     0
 49
-0.25
 74
     0
 49
0.0
 74
     0
 49
-0.25
 74
     0
  0
ENDTAB
  0
TABLE
  2
LAYER
  5
2
330
0
100
AcDbSymbolTable
 70
     7
  0
LAYER
  5
10
330
2
100
AcDbSymbolTableRecord
100
AcDbLayerTableRecord
  2
0
 70
     0
 62
     7
  6
CONTINUOUS
  0
LAYER
  5
936
330
2
100
AcDbSymbolTableRecord
100
AcDbLayerTableRecord
  2
DEFPOINTS
 70
     0
 62
     7
  6
CONTINUOUS
  0
LAYER
  5
F2F
330
2
100
AcDbSymbolTableRecord
100
AcDbLayerTableRecord
  2
DIM
 70
     0
 62
     3
  6
CONTINUOUS
  0
LAYER
  5
F30
330
2
100
AcDbSymbolTableRecord
100
AcDbLayerTableRecord
  2
OUTLINE
 70
     0
 62
     7
  6
CONTINUOUS
  0
LAYER
  5
F31
330
2
100
AcDbSymbolTableRecord
100
AcDbLayerTableRecord
  2
TEXT
 70
     0
 62
     4
  6
CONTINUOUS
  0
LAYER
  5
F32
330
2
100
AcDbSymbolTableRecord
100
AcDbLayerTableRecord
  2
CENTER
 70
     0
 62
     1
  6
CENTER
  0
LAYER
  5
1375
330
2
100
AcDbSymbolTableRecord
100
AcDbLayerTableRecord
  2
WAKU
 70
     0
 62
     7
  6
CONTINUOUS
  0
ENDTAB
  0
TABLE
  2
STYLE
  5
3
330
0
100
AcDbSymbolTable
 70
     2
  0
STYLE
  5
11
330
3
100
AcDbSymbolTableRecord
100
AcDbTextStyleTableRecord
  2
STANDARD
 70
     0
 40
0.0
 41
1.0
 50
0.0
 71
     0
 42
0.2
  3
romans.shx
  4
bigfont.shx
  0
STYLE
  5
21AD
330
3
100
AcDbSymbolTableRecord
100
AcDbTextStyleTableRecord
  2
ｽﾀｲﾙ1
 70
     0
 40
0.0
 41
1.0
 50
0.0
 71
     0
 42
0.2
  3
MS PGothic.ttf
  4

1001
ACAD
1000
MS PGothic
1071
    32818
  0
ENDTAB
  0
TABLE
  2
VIEW
  5
6
330
0
100
AcDbSymbolTable
 70
     0
  0
ENDTAB
  0
TABLE
  2
UCS
  5
7
330
0
100
AcDbSymbolTable
 70
     0
  0
ENDTAB
  0
TABLE
  2
APPID
  5
9
330
0
100
AcDbSymbolTable
 70
     3
  0
APPID
  5
12
330
9
100
AcDbSymbolTableRecord
100
AcDbRegAppTableRecord
  2
ACAD
 70
     0
  0
APPID
  5
93A
330
9
100
AcDbSymbolTableRecord
100
AcDbRegAppTableRecord
  2
ACAD_PSEXT
 70
     0
  0
APPID
  5
4FE0
330
9
100
AcDbSymbolTableRecord
100
AcDbRegAppTableRecord
  2
ACAECLAYERSTANDARD
 70
     0
  0
ENDTAB
  0
TABLE
  2
DIMSTYLE
  5
A
330
0
100
AcDbSymbolTable
 70
     2
  0
DIMSTYLE
105
8D4
330
A
100
AcDbSymbolTableRecord
100
AcDbDimStyleTableRecord
  2
STANDARD
 70
     0
  3

  4

  5

  6

  7

 40
1.0
 41
0.18
 42
0.0625
 43
0.38
 44
0.18
 45
0.0
 46
0.0
 47
0.0
 48
0.0
140
0.18
141
0.09
142
0.0
143
25.4
144
1.0
145
0.0
146
1.0
147
0.09
 71
     0
 72
     0
 73
     1
 74
     1
 75
     0
 76
     0
 77
     0
 78
     0
170
     0
171
     2
172
     0
173
     0
174
     0
175
     0
176
     0
177
     0
178
     0
270
     2
271
     4
272
     4
273
     2
274
     2
340
11
275
     0
280
     0
281
     0
282
     0
283
     1
284
     0
285
     0
286
     0
287
     3
288
     0
  0
DIMSTYLE
105
F33
102
{ACAD_REACTORS
330
74A1
330
74A2
330
74A3
330
74A4
330
74A5
102
}
330
A
100
AcDbSymbolTableRecord
100
AcDbDimStyleTableRecord
  2
G1
 70
     0
  3

  4

  5
OPEN
  6

  7

 40
3.0
 41
2.0
 42
2.0
 43
7.0
 44
0.5
 45
0.0
 46
0.0
 47
0.0
 48
0.0
140
2.0
141
0.09
142
0.0
143
0.03937
144
1.0
145
0.0
146
1.0
147
0.8
 71
     0
 72
     0
 73
     0
 74
     0
 75
     0
 76
     0
 77
     1
 78
     8
170
     0
171
     2
172
     1
173
     0
174
     0
175
     0
176
     0
177
     0
178
     7
270
     2
271
     2
272
     2
273
     2
274
     2
340
11
275
     0
280
     0
281
     0
282
     0
283
     1
284
     0
285
     0
286
     0
287
     3
288
     0
  0
ENDTAB
  0
TABLE
  2
BLOCK_RECORD
  5
1
330
0
100
AcDbSymbolTable
 70
     6
  0
BLOCK_RECORD
  5
1E
102
{ACAD_XDICTIONARY
360
211C
102
}
330
1
100
AcDbSymbolTableRecord
100
AcDbBlockTableRecord
  2
*MODEL_SPACE
  0
BLOCK_RECORD
  5
1A
102
{ACAD_XDICTIONARY
360
213F
102
}
330
1
100
AcDbSymbolTableRecord
100
AcDbBlockTableRecord
  2
*PAPER_SPACE
  0
BLOCK_RECORD
  5
8E2
330
1
100
AcDbSymbolTableRecord
100
AcDbBlockTableRecord
  2
_OPEN
  0
BLOCK_RECORD
  5
793E
330
1
100
AcDbSymbolTableRecord
100
AcDbBlockTableRecord
  2
*D1
  0
BLOCK_RECORD
  5
794A
330
1
100
AcDbSymbolTableRecord
100
AcDbBlockTableRecord
  2
*D2
  0
BLOCK_RECORD
  5
7956
330
1
100
AcDbSymbolTableRecord
100
AcDbBlockTableRecord
  2
*D3
  0
BLOCK_RECORD
  5
7962
330
1
100
AcDbSymbolTableRecord
100
AcDbBlockTableRecord
  2
*D4
  0
BLOCK_RECORD
  5
796E
330
1
100
AcDbSymbolTableRecord
100
AcDbBlockTableRecord
  2
*D5
  0
ENDTAB
  0
ENDSEC
  0
SECTION
  2
BLOCKS
  0
BLOCK
  5
1F
330
1E
100
AcDbEntity
  8
0
100
AcDbBlockBegin
  2
*MODEL_SPACE
 70
     0
 10
0.0
 20
0.0
 30
0.0
  3
*MODEL_SPACE
  1

  0
ENDBLK
  5
20
330
1E
100
AcDbEntity
  8
0
100
AcDbBlockEnd
  0
BLOCK
  5
1B
330
1A
100
AcDbEntity
 67
     1
  8
0
100
AcDbBlockBegin
  2
*PAPER_SPACE
 70
     0
 10
0.0
 20
0.0
 30
0.0
  3
*PAPER_SPACE
  1

  0
ENDBLK
  5
1C
330
1A
100
AcDbEntity
 67
     1
  8
0
100
AcDbBlockEnd
  0
BLOCK
  5
8E6
330
8E2
100
AcDbEntity
  8
0
100
AcDbBlockBegin
  2
_OPEN
 70
     0
 10
0.0
 20
0.0
 30
0.0
  3
_OPEN
  1

  0
LINE
  5
8E3
330
8E2
100
AcDbEntity
  8
0
 62
     0
100
AcDbLine
 10
-0.9659259999999999
 20
0.258819
 30
0.0
 11
0.0
 21
0.0
 31
0.0
  0
LINE
  5
8E4
330
8E2
100
AcDbEntity
  8
0
 62
     0
100
AcDbLine
 10
0.0
 20
0.0
 30
0.0
 11
-0.9659259999999999
 21
-0.258819
 31
0.0
  0
LINE
  5
8E5
330
8E2
100
AcDbEntity
  8
0
 62
     0
100
AcDbLine
 10
0.0
 20
0.0
 30
0.0
 11
-1.0
 21
0.0
 31
0.0
  0
ENDBLK
  5
8E7
330
8E2
100
AcDbEntity
  8
0
100
AcDbBlockEnd
  0
BLOCK
  5
7948
330
793E
100
AcDbEntity
  8
0
100
AcDbBlockBegin
  2
*D1
 70
     1
 10
0.0
 20
0.0
 30
0.0
  3
*D1
  1

  0
LINE
  5
93EC
330
793E
100
AcDbEntity
  8
DIM
 62
     0
100
AcDbLine
 10
149.4734619379153
 20
209.7282608224817
 30
0.0
 11
149.4734619379153
 21
178.5419148224818
 31
0.0
  0
LINE
  5
93ED
330
793E
100
AcDbEntity
  8
DIM
 62
     0
100
AcDbLine
 10
254.4734619379153
 20
209.7282608224817
 30
0.0
 11
254.4734619379153
 21
178.5419148224818
 31
0.0
  0
LINE
  5
93EE
330
793E
100
AcDbEntity
  8
DIM
 62
     0
100
AcDbLine
 10
155.4734619379153
 20
180.0419148224817
 30
0.0
 11
248.4734619379153
 21
180.0419148224817
 31
0.0
  0
INSERT
  5
93EF
330
793E
100
AcDbEntity
  8
DIM
 62
     0
100
AcDbBlockReference
  2
_OPEN
 10
149.4734619379153
 20
180.0419148224817
 30
0.0
 41
6.0
 42
6.0
 43
6.0
 50
180.0
  0
INSERT
  5
93F0
330
793E
100
AcDbEntity
  8
DIM
 62
     0
100
AcDbBlockReference
  2
_OPEN
 10
254.4734619379153
 20
180.0419148224817
 30
0.0
 41
6.0
 42
6.0
 43
6.0
  0
MTEXT
  5
93F1
330
793E
100
AcDbEntity
  8
DIM
 62
     7
100
AcDbMText
 10
201.9734619379152
 20
185.4419148224818
 30
0.0
 40
6.0
 41
0.0
 71
     5
 72
     1
  1
\A1;%%c105
1001
ACAD
1000
MTEXTBEGIN
1070
    73
1070
     1
1070
    44
1040
1.0
1070
    74
1070
     0
1000
MTEXTEND
  0
POINT
  5
93F2
330
793E
100
AcDbEntity
  8
DEFPOINTS
 62
     0
100
AcDbPoint
 10
149.4734619379153
 20
215.7282608224817
 30
0.0
  0
POINT
  5
93F3
330
793E
100
AcDbEntity
  8
DEFPOINTS
 62
     0
100
AcDbPoint
 10
254.4734619379153
 20
215.7282608224817
 30
0.0
  0
POINT
  5
93F4
330
793E
100
AcDbEntity
  8
DEFPOINTS
 62
     0
100
AcDbPoint
 10
254.4734619379153
 20
180.0419148224817
 30
0.0
  0
ENDBLK
  5
7949
330
793E
100
AcDbEntity
  8
0
100
AcDbBlockEnd
  0
BLOCK
  5
7954
330
794A
100
AcDbEntity
  8
0
100
AcDbBlockBegin
  2
*D2
 70
     1
 10
0.0
 20
0.0
 30
0.0
  3
*D2
  1

  0
LINE
  5
93E3
330
794A
100
AcDbEntity
  8
DIM
 62
     0
100
AcDbLine
 10
142.4734619379153
 20
250.0454778224818
 30
0.0
 11
142.4734619379153
 21
162.8005474654016
 31
0.0
  0
LINE
  5
93E4
330
794A
100
AcDbEntity
  8
DIM
 62
     0
100
AcDbLine
 10
269.4734619379153
 20
250.0454778224818
 30
0.0
 11
269.4734619379153
 21
162.8005474654016
 31
0.0
  0
LINE
  5
93E5
330
794A
100
AcDbEntity
  8
DIM
 62
     0
100
AcDbLine
 10
148.4734619379153
 20
164.3005474654015
 30
0.0
 11
263.4734619379153
 21
164.3005474654015
 31
0.0
  0
INSERT
  5
93E6
330
794A
100
AcDbEntity
  8
DIM
 62
     0
100
AcDbBlockReference
  2
_OPEN
 10
142.4734619379153
 20
164.3005474654015
 30
0.0
 41
6.0
 42
6.0
 43
6.0
 50
180.0
  0
INSERT
  5
93E7
330
794A
100
AcDbEntity
  8
DIM
 62
     0
100
AcDbBlockReference
  2
_OPEN
 10
269.4734619379153
 20
164.3005474654015
 30
0.0
 41
6.0
 42
6.0
 43
6.0
  0
MTEXT
  5
93E8
330
794A
100
AcDbEntity
  8
DIM
 62
     7
100
AcDbMText
 10
205.9734619379153
 20
169.7005474654015
 30
0.0
 40
6.0
 41
0.0
 71
     5
 72
     1
  1
\A1;%%C127
1001
ACAD
1000
MTEXTBEGIN
1070
    73
1070
     1
1070
    44
1040
1.0
1070
    74
1070
     0
1000
MTEXTEND
  0
POINT
  5
93E9
330
794A
100
AcDbEntity
  8
DEFPOINTS
 62
     0
100
AcDbPoint
 10
142.4734619379153
 20
256.0454778224818
 30
0.0
  0
POINT
  5
93EA
330
794A
100
AcDbEntity
  8
DEFPOINTS
 62
     0
100
AcDbPoint
 10
269.4734619379153
 20
256.0454778224818
 30
0.0
  0
POINT
  5
93EB
330
794A
100
AcDbEntity
  8
DEFPOINTS
 62
     0
100
AcDbPoint
 10
269.4734619379153
 20
164.3005474654015
 30
0.0
  0
ENDBLK
  5
7955
330
794A
100
AcDbEntity
  8
0
100
AcDbBlockEnd
  0
BLOCK
  5
7960
330
7956
100
AcDbEntity
  8
0
100
AcDbBlockBegin
  2
*D3
 70
     1
 10
0.0
 20
0.0
 30
0.0
  3
*D3
  1

  0
LINE
  5
93FE
330
7956
100
AcDbEntity
  8
DIM
 62
     0
100
AcDbLine
 10
260.4734619379153
 20
200.0454778224817
 30
0.0
 11
305.9714969379153
 21
200.0454778224817
 31
0.0
  0
LINE
  5
93FF
330
7956
100
AcDbEntity
  8
DIM
 62
     0
100
AcDbLine
 10
254.4734619379153
 20
337.0454778224817
 30
0.0
 11
305.9714969379153
 21
337.0454778224817
 31
0.0
  0
LINE
  5
9400
330
7956
100
AcDbEntity
  8
DIM
 62
     0
100
AcDbLine
 10
304.4714969379153
 20
206.0454778224817
 30
0.0
 11
304.4714969379153
 21
331.0454778224817
 31
0.0
  0
INSERT
  5
9401
330
7956
100
AcDbEntity
  8
DIM
 62
     0
100
AcDbBlockReference
  2
_OPEN
 10
304.4714969379153
 20
200.0454778224817
 30
0.0
 41
6.0
 42
6.0
 43
6.0
 50
270.0
  0
INSERT
  5
9402
330
7956
100
AcDbEntity
  8
DIM
 62
     0
100
AcDbBlockReference
  2
_OPEN
 10
304.4714969379153
 20
337.0454778224817
 30
0.0
 41
6.0
 42
6.0
 43
6.0
 50
90.0
  0
MTEXT
  5
9403
330
7956
100
AcDbEntity
  8
DIM
 62
     7
100
AcDbMText
 10
299.0714969379153
 20
268.5454778224818
 30
0.0
 40
6.0
 41
0.0
 71
     5
 72
     1
  1
\A1;137（253）
 11
0.0000000000000001
 21
1.0
 31
0.0
1001
ACAD
1000
MTEXTBEGIN
1070
    73
1070
     1
1070
    44
1040
1.0
1070
    74
1070
     0
1000
MTEXTEND
  0
POINT
  5
9404
330
7956
100
AcDbEntity
  8
DEFPOINTS
 62
     0
100
AcDbPoint
 10
254.4734619379153
 20
200.0454778224817
 30
0.0
  0
POINT
  5
9405
330
7956
100
AcDbEntity
  8
DEFPOINTS
 62
     0
100
AcDbPoint
 10
248.4734619379153
 20
337.0454778224817
 30
0.0
  0
POINT
  5
9406
330
7956
100
AcDbEntity
  8
DEFPOINTS
 62
     0
100
AcDbPoint
 10
304.4714969379153
 20
337.0454778224817
 30
0.0
  0
ENDBLK
  5
7961
330
7956
100
AcDbEntity
  8
0
100
AcDbBlockEnd
  0
BLOCK
  5
796C
330
7962
100
AcDbEntity
  8
0
100
AcDbBlockBegin
  2
*D4
 70
     1
 10
0.0
 20
0.0
 30
0.0
  3
*D4
  1

  0
LINE
  5
93F5
330
7962
100
AcDbEntity
  8
DIM
 62
     0
100
AcDbLine
 10
83.12346193791563
 20
438.0454778224819
 30
0.0
 11
83.12346193791563
 21
444.5454778224817
 31
0.0
  0
LINE
  5
93F6
330
7962
100
AcDbEntity
  8
DIM
 62
     0
100
AcDbLine
 10
104.1234619379154
 20
438.0454778224819
 30
0.0
 11
104.1234619379154
 21
444.5454778224817
 31
0.0
  0
LINE
  5
93F7
330
7962
100
AcDbEntity
  8
DIM
 62
     0
100
AcDbLine
 10
89.12346193791563
 20
443.0454778224818
 30
0.0
 11
98.1234619379154
 21
443.0454778224818
 31
0.0
  0
INSERT
  5
93F8
330
7962
100
AcDbEntity
  8
DIM
 62
     0
100
AcDbBlockReference
  2
_OPEN
 10
83.12346193791563
 20
443.0454778224818
 30
0.0
 41
6.0
 42
6.0
 43
6.0
 50
180.0
  0
INSERT
  5
93F9
330
7962
100
AcDbEntity
  8
DIM
 62
     0
100
AcDbBlockReference
  2
_OPEN
 10
104.1234619379154
 20
443.0454778224818
 30
0.0
 41
6.0
 42
6.0
 43
6.0
  0
MTEXT
  5
93FA
330
7962
100
AcDbEntity
  8
DIM
 62
     7
100
AcDbMText
 10
93.62346193791552
 20
448.4454778224817
 30
0.0
 40
6.0
 41
0.0
 71
     5
 72
     1
  1
\A1;G1／2
1001
ACAD
1000
MTEXTBEGIN
1070
    73
1070
     1
1070
    44
1040
1.0
1070
    74
1070
     0
1000
MTEXTEND
  0
POINT
  5
93FB
330
7962
100
AcDbEntity
  8
DEFPOINTS
 62
     0
100
AcDbPoint
 10
83.12346193791563
 20
432.0454778224819
 30
0.0
  0
POINT
  5
93FC
330
7962
100
AcDbEntity
  8
DEFPOINTS
 62
     0
100
AcDbPoint
 10
104.1234619379154
 20
432.0454778224819
 30
0.0
  0
POINT
  5
93FD
330
7962
100
AcDbEntity
  8
DEFPOINTS
 62
     0
100
AcDbPoint
 10
104.1234619379154
 20
443.0454778224818
 30
0.0
  0
ENDBLK
  5
796D
330
7962
100
AcDbEntity
  8
0
100
AcDbBlockEnd
  0
BLOCK
  5
7978
330
796E
100
AcDbEntity
  8
0
100
AcDbBlockBegin
  2
*D5
 70
     1
 10
0.0
 20
0.0
 30
0.0
  3
*D5
  1

  0
LINE
  5
9407
330
796E
100
AcDbEntity
  8
DIM
 62
     0
100
AcDbLine
 10
333.1234619379153
 20
438.0454778224819
 30
0.0
 11
333.1234619379153
 21
444.5454778224817
 31
0.0
  0
LINE
  5
9408
330
796E
100
AcDbEntity
  8
DIM
 62
     0
100
AcDbLine
 10
354.1234619379153
 20
438.0454778224819
 30
0.0
 11
354.1234619379153
 21
444.5454778224817
 31
0.0
  0
LINE
  5
9409
330
796E
100
AcDbEntity
  8
DIM
 62
     0
100
AcDbLine
 10
339.1234619379154
 20
443.0454778224818
 30
0.0
 11
348.1234619379154
 21
443.0454778224818
 31
0.0
  0
INSERT
  5
940A
330
796E
100
AcDbEntity
  8
DIM
 62
     0
100
AcDbBlockReference
  2
_OPEN
 10
333.1234619379153
 20
443.0454778224818
 30
0.0
 41
6.0
 42
6.0
 43
6.0
 50
180.0
  0
INSERT
  5
940B
330
796E
100
AcDbEntity
  8
DIM
 62
     0
100
AcDbBlockReference
  2
_OPEN
 10
354.1234619379153
 20
443.0454778224818
 30
0.0
 41
6.0
 42
6.0
 43
6.0
  0
MTEXT
  5
940C
330
796E
100
AcDbEntity
  8
DIM
 62
     7
100
AcDbMText
 10
343.6234619379153
 20
448.4454778224817
 30
0.0
 40
6.0
 41
0.0
 71
     5
 72
     1
  1
\A1;G1／2
1001
ACAD
1000
MTEXTBEGIN
1070
    73
1070
     1
1070
    44
1040
1.0
1070
    74
1070
     0
1000
MTEXTEND
  0
POINT
  5
940D
330
796E
100
AcDbEntity
  8
DEFPOINTS
 62
     0
100
AcDbPoint
 10
333.1234619379153
 20
432.0454778224819
 30
0.0
  0
POINT
  5
940E
330
796E
100
AcDbEntity
  8
DEFPOINTS
 62
     0
100
AcDbPoint
 10
354.1234619379153
 20
432.0454778224819
 30
0.0
  0
POINT
  5
940F
330
796E
100
AcDbEntity
  8
DEFPOINTS
 62
     0
100
AcDbPoint
 10
354.1234619379153
 20
443.0454778224818
 30
0.0
  0
ENDBLK
  5
7979
330
796E
100
AcDbEntity
  8
0
100
AcDbBlockEnd
  0
ENDSEC
  0
SECTION
  2
ENTITIES
  0
LINE
  5
752
330
1E
100
AcDbEntity
  8
WAKU
100
AcDbLine
 10
80.0
 20
20.0
 30
0.0
 11
400.0
 21
20.0
 31
0.0
  0
TEXT
  5
764
330
1E
100
AcDbEntity
  8
WAKU
100
AcDbText
 10
24.39999999999998
 20
67.0
 30
0.0
 40
8.0
  1
番号
 41
0.7
100
AcDbText
  0
LINE
  5
765
330
1E
100
AcDbEntity
  8
WAKU
100
AcDbLine
 10
20.0
 20
65.0
 30
0.0
 11
400.0
 21
65.0
 31
0.0
  0
LINE
  5
766
330
1E
100
AcDbEntity
  8
WAKU
 62
     3
100
AcDbLine
 10
20.0
 20
80.00000000000008
 30
0.0
 11
400.0
 21
80.00000000000008
 31
0.0
  0
TEXT
  5
76E
330
1E
100
AcDbEntity
  8
WAKU
100
AcDbText
 10
200.0
 20
82.00000000000008
 30
0.0
 40
8.0
  1
１
100
AcDbText
  0
TEXT
  5
773
330
1E
100
AcDbEntity
  8
WAKU
100
AcDbText
 10
390.0
 20
82.00000000000008
 30
0.0
 40
8.0
  1
２
100
AcDbText
  0
LINE
  5
774
330
1E
100
AcDbEntity
  8
WAKU
100
AcDbLine
 10
19.99999999999999
 20
95.0
 30
0.0
 11
400.0
 21
95.0
 31
0.0
  0
LINE
  5
775
330
1E
100
AcDbEntity
  8
WAKU
100
AcDbLine
 10
20.0
 20
95.0
 30
0.0
 11
20.0
 21
20.0
 31
0.0
  0
LINE
  5
777
330
1E
100
AcDbEntity
  8
WAKU
100
AcDbLine
 10
400.0
 20
95.0
 30
0.0
 11
400.0
 21
20.0
 31
0.0
  0
LINE
  5
778
330
1E
100
AcDbEntity
  8
WAKU
 62
     3
100
AcDbLine
 10
40.0
 20
95.0
 30
0.0
 11
40.0
 21
65.0
 31
0.0
  0
LINE
  5
779
330
1E
100
AcDbEntity
  8
WAKU
 62
     3
100
AcDbLine
 10
190.0
 20
95.0
 30
0.0
 11
190.0
 21
65.0
 31
0.0
  0
TEXT
  5
77A
330
1E
100
AcDbEntity
  8
WAKU
100
AcDbText
 10
217.5852272727272
 20
28.0
 30
0.0
 40
10.0
  1
シーガルフォー浄水システム
  7
ｽﾀｲﾙ1
 72
     1
 11
305.0
 21
33.0
 31
0.0
100
AcDbText
 73
     2
  0
TEXT
  5
77B
330
1E
100
AcDbEntity
  8
WAKU
100
AcDbText
 10
88.17395548891397
 20
67.0
 30
0.0
 40
8.0
  1
品　　　名
100
AcDbText
  0
TEXT
  5
77C
330
1E
100
AcDbEntity
  8
WAKU
100
AcDbText
 10
194.4000000000001
 20
67.0
 30
0.0
 40
8.0
  1
数量
 41
0.7
100
AcDbText
  0
TEXT
  5
77D
330
1E
100
AcDbEntity
  8
WAKU
100
AcDbText
 10
30.0
 20
82.00000000000008
 30
0.0
 40
8.0
  1
１
100
AcDbText
  0
TEXT
  5
782
330
1E
100
AcDbEntity
  8
WAKU
100
AcDbText
 10
220.0
 20
82.00000000000008
 30
0.0
 40
8.0
  1
２
100
AcDbText
  0
TEXT
  5
784
330
1E
100
AcDbEntity
  8
WAKU
100
AcDbText
 10
48.0
 20
82.00000000000017
 30
0.0
 40
8.0
  1
浄水器本体
100
AcDbText
  0
TEXT
  5
797
330
1E
100
AcDbEntity
  8
WAKU
100
AcDbText
 10
283.0397727272727
 20
46.0
 30
0.0
 40
10.0
  1
Ｘ１（２）
  7
ｽﾀｲﾙ1
 72
     1
 11
305.0
 21
51.00000000000001
 31
0.0
100
AcDbText
 73
     2
  0
TEXT
  5
799
330
1E
100
AcDbEntity
  8
WAKU
100
AcDbText
 10
384.4000000000001
 20
67.0
 30
0.0
 40
8.0
  1
数量
 41
0.7
100
AcDbText
  0
LINE
  5
79A
330
1E
100
AcDbEntity
  8
WAKU
 62
     3
100
AcDbLine
 10
380.0
 20
95.0
 30
0.0
 11
380.0
 21
65.0
 31
0.0
  0
TEXT
  5
79B
330
1E
100
AcDbEntity
  8
WAKU
100
AcDbText
 10
281.4191659866198
 20
67.0
 30
0.0
 40
8.0
  1
品　　　名
100
AcDbText
  0
TEXT
  5
79C
330
1E
100
AcDbEntity
  8
WAKU
100
AcDbText
 10
214.4000000000001
 20
67.0
 30
0.0
 40
8.0
  1
番号
 41
0.7
100
AcDbText
  0
LINE
  5
79D
330
1E
100
AcDbEntity
  8
WAKU
 62
     3
100
AcDbLine
 10
230.0
 20
95.0
 30
0.0
 11
230.0
 21
65.0
 31
0.0
  0
LINE
  5
79E
330
1E
100
AcDbEntity
  8
WAKU
100
AcDbLine
 10
210.0
 20
95.0
 30
0.0
 11
210.0
 21
20.0
 31
0.0
  0
TEXT
  5
7B4
330
1E
100
AcDbEntity
  8
WAKU
100
AcDbText
 10
238.0
 20
82.00000000000008
 30
0.0
 40
8.0
  1
専用ホース（パッキン付）
100
AcDbText
  0
LINE
  5
7B9
330
1E
100
AcDbEntity
  8
DEFPOINTS
 62
     3
100
AcDbLine
 10
0.0
 20
0.0
 30
0.0
 11
10.0
 21
0.0
 31
0.0
  0
LINE
  5
7BA
330
1E
100
AcDbEntity
  8
DEFPOINTS
 62
     3
100
AcDbLine
 10
410.0
 20
0.0
 30
0.0
 11
420.0
 21
0.0
 31
0.0
  0
LINE
  5
7BB
330
1E
100
AcDbEntity
  8
DEFPOINTS
 62
     3
100
AcDbLine
 10
420.0
 20
594.0
 30
0.0
 11
420.0
 21
584.0
 31
0.0
  0
LINE
  5
7BC
330
1E
100
AcDbEntity
  8
DEFPOINTS
 62
     3
100
AcDbLine
 10
420.0
 20
10.0
 30
0.0
 11
420.0
 21
0.0
 31
0.0
  0
LINE
  5
7BD
330
1E
100
AcDbEntity
  8
DEFPOINTS
 62
     3
100
AcDbLine
 10
0.0
 20
594.0
 30
0.0
 11
0.0
 21
584.0
 31
0.0
  0
LINE
  5
7BE
330
1E
100
AcDbEntity
  8
DEFPOINTS
 62
     3
100
AcDbLine
 10
0.0
 20
10.0
 30
0.0
 11
0.0
 21
0.0
 31
0.0
  0
LINE
  5
7BF
330
1E
100
AcDbEntity
  8
DEFPOINTS
 62
     3
100
AcDbLine
 10
0.0
 20
594.0
 30
0.0
 11
10.0
 21
594.0
 31
0.0
  0
LINE
  5
7C0
330
1E
100
AcDbEntity
  8
DEFPOINTS
 62
     3
100
AcDbLine
 10
410.0
 20
594.0
 30
0.0
 11
420.0
 21
594.0
 31
0.0
  0
TEXT
  5
14DD
330
1E
100
AcDbEntity
  8
WAKU
  6
CONTINUOUS
100
AcDbText
 10
29.42313021542236
 20
43.21991411460987
 30
0.0
 40
10.0
  1
グランドデュークス株式会社
  7
ｽﾀｲﾙ1
100
AcDbText
  0
LINE
  5
7081
330
1E
100
AcDbEntity
  8
OUTLINE
100
AcDbLine
 10
261.4734619379153
 20
262.5454778224818
 30
0.0
 11
261.4734619379153
 21
268.5454778224818
 31
0.0
  0
ARC
  5
7082
330
1E
100
AcDbEntity
  8
OUTLINE
100
AcDbCircle
 10
186.0256459379153
 20
250.0454778224818
 30
0.0
 40
50.0
100
AcDbArc
 50
255.068583
 51
270.0
  0
LINE
  5
7084
330
1E
100
AcDbEntity
  8
OUTLINE
100
AcDbLine
 10
261.4734619379153
 20
268.5454778224818
 30
0.0
 11
269.4734619379153
 21
268.5454778224818
 31
0.0
  0
LINE
  5
7085
330
1E
100
AcDbEntity
  8
OUTLINE
100
AcDbLine
 10
173.1425129379154
 20
201.7337308224818
 30
0.0
 11
156.8968359379156
 21
206.0659118224819
 31
0.0
  0
LINE
  5
7086
330
1E
100
AcDbEntity
  8
OUTLINE
100
AcDbLine
 10
230.8044109379154
 20
201.7337308224818
 30
0.0
 11
247.0500889379154
 21
206.0659118224819
 31
0.0
  0
LINE
  5
7087
330
1E
100
AcDbEntity
  8
OUTLINE
100
AcDbLine
 10
142.4734619379153
 20
256.0454778224818
 30
0.0
 11
269.4734619379153
 21
256.0454778224818
 31
0.0
  0
LINE
  5
7088
330
1E
100
AcDbEntity
  8
OUTLINE
100
AcDbLine
 10
142.4734619379153
 20
275.0454778224818
 30
0.0
 11
269.4734619379153
 21
275.0454778224818
 31
0.0
  0
LINE
  5
7089
330
1E
100
AcDbEntity
  8
OUTLINE
100
AcDbLine
 10
261.4734619379153
 20
262.5454778224818
 30
0.0
 11
269.4734619379153
 21
262.5454778224818
 31
0.0
  0
LINE
  5
708B
330
1E
100
AcDbEntity
  8
OUTLINE
100
AcDbLine
 10
342.3234619379154
 20
469.0454778224817
 30
0.0
 11
344.9234619379153
 21
469.0454778224817
 31
0.0
  0
LINE
  5
708C
330
1E
100
AcDbEntity
  8
OUTLINE
100
AcDbLine
 10
344.9234619379153
 20
463.0454778224817
 30
0.0
 11
344.9234619379153
 21
469.0454778224817
 31
0.0
  0
LINE
  5
708D
330
1E
100
AcDbEntity
  8
OUTLINE
100
AcDbLine
 10
342.3234619379154
 20
463.0454778224817
 30
0.0
 11
342.3234619379154
 21
469.0454778224817
 31
0.0
  0
LINE
  5
708E
330
1E
100
AcDbEntity
  8
OUTLINE
100
AcDbLine
 10
346.1234619379154
 20
463.0454778224817
 30
0.0
 11
343.6234619379153
 21
457.0454778224819
 31
0.0
  0
LINE
  5
708F
330
1E
100
AcDbEntity
  8
OUTLINE
100
AcDbLine
 10
142.4734619379153
 20
275.0454778224818
 30
0.0
 11
142.4734619379153
 21
256.0454778224818
 31
0.0
  0
LINE
  5
7090
330
1E
100
AcDbEntity
  8
OUTLINE
100
AcDbLine
 10
341.1234619379154
 20
463.0454778224817
 30
0.0
 11
343.6234619379153
 21
457.0454778224819
 31
0.0
  0
LINE
  5
7091
330
1E
100
AcDbEntity
  8
OUTLINE
100
AcDbLine
 10
341.1234619379154
 20
463.0454778224817
 30
0.0
 11
342.3234619379154
 21
463.0454778224817
 31
0.0
  0
LINE
  5
7092
330
1E
100
AcDbEntity
  8
OUTLINE
100
AcDbLine
 10
344.9234619379153
 20
463.0454778224817
 30
0.0
 11
346.1234619379154
 21
463.0454778224817
 31
0.0
  0
LINE
  5
7093
330
1E
100
AcDbEntity
  8
OUTLINE
100
AcDbLine
 10
354.1234619379153
 20
432.0454778224819
 30
0.0
 11
333.1234619379153
 21
432.0454778224819
 31
0.0
  0
LINE
  5
7094
330
1E
100
AcDbEntity
  8
OUTLINE
100
AcDbLine
 10
336.1234619379154
 20
397.5454778224817
 30
0.0
 11
336.1234619379154
 21
382.0454778224819
 31
0.0
  0
LINE
  5
7095
330
1E
100
AcDbEntity
  8
OUTLINE
100
AcDbLine
 10
334.6234619379154
 20
417.0454778224817
 30
0.0
 11
334.6234619379154
 21
411.0454778224819
 31
0.0
  0
LINE
  5
7096
330
1E
100
AcDbEntity
  8
OUTLINE
100
AcDbLine
 10
336.1234619379154
 20
419.0454778224817
 30
0.0
 11
336.1234619379154
 21
418.0454778224818
 31
0.0
  0
ARC
  5
7097
330
1E
100
AcDbEntity
  8
OUTLINE
100
AcDbCircle
 10
335.6234619379154
 20
411.0454778224819
 30
0.0
 40
1.0
100
AcDbArc
 50
180.0
 51
270.0
  0
ARC
  5
7098
330
1E
100
AcDbEntity
  8
OUTLINE
100
AcDbCircle
 10
335.6234619379154
 20
417.0454778224817
 30
0.0
 40
1.0
100
AcDbArc
 50
90.0
 51
180.0
  0
LINE
  5
7099
330
1E
100
AcDbEntity
  8
OUTLINE
100
AcDbLine
 10
186.0256459379153
 20
200.0454778224817
 30
0.0
 11
217.9212789379153
 21
200.0454778224817
 31
0.0
  0
LINE
  5
709A
330
1E
100
AcDbEntity
  8
OUTLINE
100
AcDbLine
 10
335.6234619379154
 20
410.0454778224817
 30
0.0
 11
335.6234619379154
 21
397.5454778224817
 31
0.0
  0
LINE
  5
709B
330
1E
100
AcDbEntity
  8
OUTLINE
100
AcDbLine
 10
354.1234619379153
 20
419.0454778224817
 30
0.0
 11
333.1234619379153
 21
419.0454778224817
 31
0.0
  0
LINE
  5
709C
330
1E
100
AcDbEntity
  8
OUTLINE
100
AcDbLine
 10
351.6234619379154
 20
418.0454778224818
 30
0.0
 11
335.6234619379154
 21
418.0454778224818
 31
0.0
  0
LINE
  5
709D
330
1E
100
AcDbEntity
  8
OUTLINE
100
AcDbLine
 10
351.6234619379154
 20
410.0454778224817
 30
0.0
 11
335.6234619379154
 21
410.0454778224817
 31
0.0
  0
LINE
  5
709E
330
1E
100
AcDbEntity
  8
OUTLINE
100
AcDbLine
 10
351.6234619379154
 20
397.5454778224817
 30
0.0
 11
335.6234619379154
 21
397.5454778224817
 31
0.0
  0
ARC
  5
709F
330
1E
100
AcDbEntity
  8
OUTLINE
100
AcDbCircle
 10
343.6234619379153
 20
425.5454778224817
 30
0.0
 40
6.5
100
AcDbArc
 50
90.0
 51
270.0
  0
LINE
  5
70A0
330
1E
100
AcDbEntity
  8
OUTLINE
100
AcDbLine
 10
354.1234619379153
 20
432.0454778224819
 30
0.0
 11
354.8888289379153
 21
431.5506948224818
 31
0.0
  0
LINE
  5
70A1
330
1E
100
AcDbEntity
  8
OUTLINE
100
AcDbLine
 10
354.8888289379153
 20
431.5506948224818
 30
0.0
 11
355.5376759379153
 21
430.1416718224818
 31
0.0
  0
LINE
  5
70A2
330
1E
100
AcDbEntity
  8
OUTLINE
100
AcDbLine
 10
355.5376759379153
 20
430.1416718224818
 30
0.0
 11
355.9712209379144
 21
428.0329198224817
 31
0.0
  0
LINE
  5
70A3
330
1E
100
AcDbEntity
  8
OUTLINE
100
AcDbLine
 10
355.9712209379144
 20
428.0329198224817
 30
0.0
 11
356.1234619379153
 21
425.5454778224817
 31
0.0
  0
LINE
  5
70A4
330
1E
100
AcDbEntity
  8
OUTLINE
100
AcDbLine
 10
356.1234619379153
 20
425.5454778224817
 30
0.0
 11
355.9712209379144
 21
423.0580358224819
 31
0.0
  0
LINE
  5
70A5
330
1E
100
AcDbEntity
  8
OUTLINE
100
AcDbLine
 10
355.9712209379144
 20
423.0580358224819
 30
0.0
 11
355.5376759379153
 21
420.9492838224817
 31
0.0
  0
LINE
  5
70A6
330
1E
100
AcDbEntity
  8
OUTLINE
100
AcDbLine
 10
355.5376759379153
 20
420.9492838224817
 30
0.0
 11
354.8888289379153
 21
419.5402608224817
 31
0.0
  0
LINE
  5
70A7
330
1E
100
AcDbEntity
  8
OUTLINE
100
AcDbLine
 10
354.8888289379153
 20
419.5402608224817
 30
0.0
 11
354.1234619379153
 21
419.0454778224817
 31
0.0
  0
LINE
  5
70A8
330
1E
100
AcDbEntity
  8
OUTLINE
100
AcDbLine
 10
333.1234619379153
 20
432.0454778224819
 30
0.0
 11
333.8888289379153
 21
431.5506948224818
 31
0.0
  0
LINE
  5
70A9
330
1E
100
AcDbEntity
  8
OUTLINE
100
AcDbLine
 10
333.8888289379153
 20
431.5506948224818
 30
0.0
 11
334.5376759379153
 21
430.1416718224818
 31
0.0
  0
LINE
  5
70AA
330
1E
100
AcDbEntity
  8
OUTLINE
100
AcDbLine
 10
334.5376759379153
 20
430.1416718224818
 30
0.0
 11
334.9712209379154
 21
428.0329198224817
 31
0.0
  0
LINE
  5
70AB
330
1E
100
AcDbEntity
  8
OUTLINE
100
AcDbLine
 10
334.9712209379154
 20
428.0329198224817
 30
0.0
 11
335.1234619379154
 21
425.5454778224817
 31
0.0
  0
LINE
  5
70AC
330
1E
100
AcDbEntity
  8
OUTLINE
100
AcDbLine
 10
335.1234619379154
 20
425.5454778224817
 30
0.0
 11
334.9712209379154
 21
423.0580358224819
 31
0.0
  0
LINE
  5
70AD
330
1E
100
AcDbEntity
  8
OUTLINE
100
AcDbLine
 10
334.9712209379154
 20
423.0580358224819
 30
0.0
 11
334.5376759379153
 21
420.9492838224817
 31
0.0
  0
LINE
  5
70AE
330
1E
100
AcDbEntity
  8
OUTLINE
100
AcDbLine
 10
334.5376759379153
 20
420.9492838224817
 30
0.0
 11
333.8888289379153
 21
419.5402608224817
 31
0.0
  0
LINE
  5
70AF
330
1E
100
AcDbEntity
  8
OUTLINE
100
AcDbLine
 10
333.8888289379153
 20
419.5402608224817
 30
0.0
 11
333.1234619379153
 21
419.0454778224817
 31
0.0
  0
LINE
  5
70B0
330
1E
100
AcDbEntity
  8
OUTLINE
100
AcDbLine
 10
333.1234619379153
 20
419.0454778224817
 30
0.0
 11
332.3580949379154
 21
419.5402608224817
 31
0.0
  0
LINE
  5
70B1
330
1E
100
AcDbEntity
  8
OUTLINE
100
AcDbLine
 10
332.3580949379154
 20
419.5402608224817
 30
0.0
 11
331.7092489379153
 21
420.9492838224817
 31
0.0
  0
LINE
  5
70B2
330
1E
100
AcDbEntity
  8
OUTLINE
100
AcDbLine
 10
331.7092489379153
 20
420.9492838224817
 30
0.0
 11
331.2757029379154
 21
423.0580358224819
 31
0.0
  0
LINE
  5
70B3
330
1E
100
AcDbEntity
  8
OUTLINE
100
AcDbLine
 10
331.2757029379154
 20
423.0580358224819
 30
0.0
 11
331.1234619379153
 21
425.5454778224817
 31
0.0
  0
LINE
  5
70B4
330
1E
100
AcDbEntity
  8
OUTLINE
100
AcDbLine
 10
331.1234619379153
 20
425.5454778224817
 30
0.0
 11
331.2757029379154
 21
428.0329198224817
 31
0.0
  0
LINE
  5
70B5
330
1E
100
AcDbEntity
  8
OUTLINE
100
AcDbLine
 10
331.2757029379154
 20
428.0329198224817
 30
0.0
 11
331.7092489379153
 21
430.1416718224818
 31
0.0
  0
LINE
  5
70B6
330
1E
100
AcDbEntity
  8
OUTLINE
100
AcDbLine
 10
331.7092489379153
 20
430.1416718224818
 30
0.0
 11
332.3580949379154
 21
431.5506948224818
 31
0.0
  0
LINE
  5
70B7
330
1E
100
AcDbEntity
  8
OUTLINE
100
AcDbLine
 10
332.3580949379154
 20
431.5506948224818
 30
0.0
 11
333.1234619379153
 21
432.0454778224819
 31
0.0
  0
ARC
  5
70B8
330
1E
100
AcDbEntity
  8
OUTLINE
100
AcDbCircle
 10
347.3734619379154
 20
387.0454778224817
 30
0.0
 40
6.25
100
AcDbArc
 50
233.130102
 51
306.8698979999998
  0
ARC
  5
70B9
330
1E
100
AcDbEntity
  8
OUTLINE
100
AcDbCircle
 10
339.8734619379154
 20
387.0454778224817
 30
0.0
 40
6.25
100
AcDbArc
 50
233.130102
 51
306.8698979999998
  0
ARC
  5
70BA
330
1E
100
AcDbEntity
  8
OUTLINE
100
AcDbCircle
 10
339.8734619379154
 20
377.0454778224817
 30
0.0
 40
6.25
100
AcDbArc
 50
53.13010200000001
 51
126.869898
  0
LINE
  5
70BB
330
1E
100
AcDbEntity
  8
OUTLINE
100
AcDbLine
 10
94.92346193791536
 20
457.0454778224819
 30
0.0
 11
92.32346193791533
 21
457.0454778224819
 31
0.0
  0
LINE
  5
70BC
330
1E
100
AcDbEntity
  8
OUTLINE
100
AcDbLine
 10
223.9942209379153
 20
342.0454778224817
 30
0.0
 11
246.5527029379154
 21
342.0454778224817
 31
0.0
  0
LINE
  5
70BD
330
1E
100
AcDbEntity
  8
OUTLINE
100
AcDbLine
 10
247.7734619379152
 20
344.5454778224817
 30
0.0
 11
247.7734619379152
 21
346.7454778224817
 31
0.0
  0
LINE
  5
70BE
330
1E
100
AcDbEntity
  8
OUTLINE
100
AcDbLine
 10
247.5013859379152
 20
342.7292498224817
 30
0.0
 11
248.1155149379153
 21
344.0716358224817
 31
0.0
  0
ARC
  5
70BF
330
1E
100
AcDbEntity
  8
OUTLINE
100
AcDbCircle
 10
246.5527029379154
 20
343.0454778224817
 30
0.0
 40
1.0
100
AcDbArc
 50
270.0
 51
341.5650509999998
  0
ARC
  5
70C0
330
1E
100
AcDbEntity
  8
OUTLINE
100
AcDbCircle
 10
247.7739889379145
 20
344.1854778224817
 30
0.0
 40
0.36
100
AcDbArc
 50
341.5650509999998
 51
90.0
  0
LINE
  5
70C1
330
1E
100
AcDbEntity
  8
OUTLINE
100
AcDbLine
 10
248.7734619379152
 20
356.2454778224817
 30
0.0
 11
248.7734619379152
 21
359.3454778224817
 31
0.0
  0
LINE
  5
70C2
330
1E
100
AcDbEntity
  8
OUTLINE
100
AcDbLine
 10
248.9082889379153
 20
347.1236118224817
 30
0.0
 11
249.3383049379153
 21
347.4574258224817
 31
0.0
  0
ARC
  5
70C3
330
1E
100
AcDbEntity
  8
OUTLINE
100
AcDbCircle
 10
247.8045229379154
 20
348.5454778224819
 30
0.0
 40
1.8
100
AcDbArc
 50
270.0
 51
307.8214709999998
  0
ARC
  5
70C4
330
1E
100
AcDbEntity
  8
OUTLINE
100
AcDbCircle
 10
248.7251019379152
 20
348.2473508224817
 30
0.0
 40
1.0
100
AcDbArc
 50
307.8214709999998
 51
323.82112
  0
LINE
  5
70C5
330
1E
100
AcDbEntity
  8
OUTLINE
100
AcDbLine
 10
247.8734619379153
 20
388.5454778224817
 30
0.0
 11
249.7734619379152
 21
387.5454778224817
 31
0.0
  0
LINE
  5
70C6
330
1E
100
AcDbEntity
  8
OUTLINE
100
AcDbLine
 10
248.2734619379152
 20
388.9454778224817
 30
0.0
 11
248.2734619379152
 21
400.5454778224817
 31
0.0
  0
ARC
  5
70C7
330
1E
100
AcDbEntity
  8
OUTLINE
100
AcDbCircle
 10
247.8734619379153
 20
388.9454778224817
 30
0.0
 40
0.4
100
AcDbArc
 50
270.0
 51
0.0
  0
LINE
  5
70C8
330
1E
100
AcDbEntity
  8
OUTLINE
100
AcDbLine
 10
248.2734619379152
 20
400.5454778224817
 30
0.0
 11
247.2734619379152
 21
402.0454778224817
 31
0.0
  0
LINE
  5
70C9
330
1E
100
AcDbEntity
  8
OUTLINE
100
AcDbLine
 10
247.2734619379152
 20
402.0454778224817
 30
0.0
 11
245.4474779379154
 21
410.2624078224817
 31
0.0
  0
ARC
  5
70CA
330
1E
100
AcDbEntity
  8
OUTLINE
100
AcDbCircle
 10
244.4712909379154
 20
410.0454778224817
 30
0.0
 40
1.0
100
AcDbArc
 50
12.52880799999999
 51
90.0
  0
LINE
  5
70CB
330
1E
100
AcDbEntity
  8
OUTLINE
100
AcDbLine
 10
235.2734619379152
 20
388.5454778224817
 30
0.0
 11
240.5734619379154
 21
388.5454778224817
 31
0.0
  0
ARC
  5
70CC
330
1E
100
AcDbEntity
  8
OUTLINE
100
AcDbCircle
 10
248.3734619379154
 20
359.3454778224817
 30
0.0
 40
0.4
100
AcDbArc
 50
0.0
 51
90.0
  0
LINE
  5
70CD
330
1E
100
AcDbEntity
  8
OUTLINE
100
AcDbLine
 10
235.2734619379152
 20
388.5454778224817
 30
0.0
 11
238.2734619379152
 21
388.5454778224817
 31
0.0
  0
LINE
  5
70CE
330
1E
100
AcDbEntity
  8
OUTLINE
100
AcDbLine
 10
247.8734619379153
 20
372.2454778224817
 30
0.0
 11
222.6734619379153
 21
372.2454778224817
 31
0.0
  0
LINE
  5
70CF
330
1E
100
AcDbEntity
  8
OUTLINE
100
AcDbLine
 10
235.2734619379152
 20
372.2454778224817
 30
0.0
 11
222.6734619379153
 21
372.2454778224817
 31
0.0
  0
LINE
  5
70D0
330
1E
100
AcDbEntity
  8
OUTLINE
100
AcDbLine
 10
247.7739889379145
 20
344.5454778224817
 30
0.0
 11
222.7729359379154
 21
344.5454778224817
 31
0.0
  0
LINE
  5
70D1
330
1E
100
AcDbEntity
  8
OUTLINE
100
AcDbLine
 10
247.8045229379154
 20
346.7454778224817
 30
0.0
 11
222.7424019379152
 21
346.7454778224817
 31
0.0
  0
LINE
  5
70D2
330
1E
100
AcDbEntity
  8
OUTLINE
100
AcDbLine
 10
248.7734619379152
 20
356.2454778224817
 30
0.0
 11
221.7734619379152
 21
356.2454778224817
 31
0.0
  0
LINE
  5
70D3
330
1E
100
AcDbEntity
  8
OUTLINE
100
AcDbLine
 10
248.3734619379154
 20
359.7454778224817
 30
0.0
 11
222.1734619379153
 21
359.7454778224817
 31
0.0
  0
LINE
  5
70D4
330
1E
100
AcDbEntity
  8
OUTLINE
100
AcDbLine
 10
248.3734619379154
 20
364.7454778224817
 30
0.0
 11
222.1734619379153
 21
364.7454778224817
 31
0.0
  0
LINE
  5
70D5
330
1E
100
AcDbEntity
  8
OUTLINE
100
AcDbLine
 10
248.3734619379154
 20
369.7454778224817
 30
0.0
 11
222.1734619379153
 21
369.7454778224817
 31
0.0
  0
LINE
  5
70D6
330
1E
100
AcDbEntity
  8
OUTLINE
100
AcDbLine
 10
247.8734619379153
 20
379.2454778224817
 30
0.0
 11
222.6734619379153
 21
379.2454778224817
 31
0.0
  0
LINE
  5
70D7
330
1E
100
AcDbEntity
  8
OUTLINE
100
AcDbLine
 10
247.8734619379153
 20
379.5454778224817
 30
0.0
 11
222.6734619379153
 21
379.5454778224817
 31
0.0
  0
LINE
  5
70D8
330
1E
100
AcDbEntity
  8
OUTLINE
100
AcDbLine
 10
247.8734619379153
 20
381.5454778224817
 30
0.0
 11
222.6734619379153
 21
381.5454778224817
 31
0.0
  0
LINE
  5
70D9
330
1E
100
AcDbEntity
  8
OUTLINE
100
AcDbLine
 10
247.8734619379153
 20
388.5454778224817
 30
0.0
 11
222.6734619379153
 21
388.5454778224817
 31
0.0
  0
LINE
  5
70DA
330
1E
100
AcDbEntity
  8
OUTLINE
100
AcDbLine
 10
247.2734619379152
 20
402.0454778224817
 30
0.0
 11
223.2734619379152
 21
402.0454778224817
 31
0.0
  0
LINE
  5
70DB
330
1E
100
AcDbEntity
  8
OUTLINE
100
AcDbLine
 10
244.4712909379154
 20
411.0454778224819
 30
0.0
 11
226.0756339379154
 21
411.0454778224819
 31
0.0
  0
LINE
  5
70DC
330
1E
100
AcDbEntity
  8
OUTLINE
100
AcDbLine
 10
222.7734619379152
 20
344.5454778224817
 30
0.0
 11
222.7734619379152
 21
346.7454778224817
 31
0.0
  0
LINE
  5
70DD
330
1E
100
AcDbEntity
  8
OUTLINE
100
AcDbLine
 10
223.0455379379154
 20
342.7292498224817
 30
0.0
 11
222.4314099379153
 21
344.0716358224817
 31
0.0
  0
ARC
  5
70DE
330
1E
100
AcDbEntity
  8
OUTLINE
100
AcDbCircle
 10
223.9942209379153
 20
343.0454778224817
 30
0.0
 40
1.0
100
AcDbArc
 50
198.4349489999999
 51
270.0
  0
ARC
  5
70DF
330
1E
100
AcDbEntity
  8
OUTLINE
100
AcDbCircle
 10
222.7729359379154
 20
344.1854778224817
 30
0.0
 40
0.36
100
AcDbArc
 50
90.0
 51
198.4349489999999
  0
LINE
  5
70E0
330
1E
100
AcDbEntity
  8
OUTLINE
100
AcDbLine
 10
221.7734619379152
 20
356.2454778224817
 30
0.0
 11
221.7734619379152
 21
359.3454778224817
 31
0.0
  0
LINE
  5
70E1
330
1E
100
AcDbEntity
  8
OUTLINE
100
AcDbLine
 10
221.6386359379153
 20
347.1236118224817
 30
0.0
 11
221.2086199379152
 21
347.4574258224817
 31
0.0
  0
ARC
  5
70E2
330
1E
100
AcDbEntity
  8
OUTLINE
100
AcDbCircle
 10
159.4734619379153
 20
215.7282608224817
 30
0.0
 40
10.0
100
AcDbArc
 50
180.0
 51
255.068583
  0
ARC
  5
70E3
330
1E
100
AcDbEntity
  8
OUTLINE
100
AcDbCircle
 10
222.7424019379152
 20
348.5454778224819
 30
0.0
 40
1.8
100
AcDbArc
 50
232.178529
 51
270.0
  0
ARC
  5
70E4
330
1E
100
AcDbEntity
  8
OUTLINE
100
AcDbCircle
 10
217.9212789379153
 20
250.0454778224818
 30
0.0
 40
50.0
100
AcDbArc
 50
270.0
 51
284.9314169999999
  0
ARC
  5
70E5
330
1E
100
AcDbEntity
  8
OUTLINE
100
AcDbCircle
 10
244.4734619379153
 20
215.7282608224817
 30
0.0
 40
10.0
100
AcDbArc
 50
284.9314169999999
 51
0.0
  0
ARC
  5
70E6
330
1E
100
AcDbEntity
  8
OUTLINE
100
AcDbCircle
 10
221.8218229379153
 20
348.2473508224817
 30
0.0
 40
1.0
100
AcDbArc
 50
216.17888
 51
232.178529
  0
LINE
  5
70E7
330
1E
100
AcDbEntity
  8
OUTLINE
100
AcDbLine
 10
224.7734619379152
 20
359.7454778224817
 30
0.0
 11
224.7734619379152
 21
364.7454778224817
 31
0.0
  0
LINE
  5
70E8
330
1E
100
AcDbEntity
  8
OUTLINE
100
AcDbLine
 10
221.7734619379152
 20
365.1454778224817
 30
0.0
 11
221.7734619379152
 21
369.3454778224817
 31
0.0
  0
LINE
  5
70E9
330
1E
100
AcDbEntity
  8
OUTLINE
100
AcDbLine
 10
220.9734619379153
 20
365.2454778224817
 30
0.0
 11
220.9734619379153
 21
369.2454778224819
 31
0.0
  0
LINE
  5
70EA
330
1E
100
AcDbEntity
  8
OUTLINE
100
AcDbLine
 10
221.7734619379152
 20
365.2454778224817
 30
0.0
 11
220.9734619379153
 21
365.2454778224817
 31
0.0
  0
LINE
  5
70EB
330
1E
100
AcDbEntity
  8
OUTLINE
100
AcDbLine
 10
221.7734619379152
 20
369.2454778224819
 30
0.0
 11
220.9734619379153
 21
369.2454778224819
 31
0.0
  0
ARC
  5
70EC
330
1E
100
AcDbEntity
  8
OUTLINE
100
AcDbCircle
 10
222.1734619379153
 20
369.3454778224817
 30
0.0
 40
0.4
100
AcDbArc
 50
90.0
 51
180.0
  0
ARC
  5
70ED
330
1E
100
AcDbEntity
  8
OUTLINE
100
AcDbCircle
 10
222.1734619379153
 20
365.1454778224817
 30
0.0
 40
0.4
100
AcDbArc
 50
180.0
 51
270.0
  0
LINE
  5
70EE
330
1E
100
AcDbEntity
  8
OUTLINE
100
AcDbLine
 10
223.2734619379152
 20
369.7454778224817
 30
0.0
 11
223.2734619379152
 21
372.2454778224817
 31
0.0
  0
ARC
  5
70EF
330
1E
100
AcDbEntity
  8
OUTLINE
100
AcDbCircle
 10
222.6734619379153
 20
372.6454778224817
 30
0.0
 40
0.4
100
AcDbArc
 50
180.0
 51
270.0
  0
ARC
  5
70F0
330
1E
100
AcDbEntity
  8
OUTLINE
100
AcDbCircle
 10
222.6734619379153
 20
378.8454778224819
 30
0.0
 40
0.4
100
AcDbArc
 50
90.0
 51
180.0
  0
LINE
  5
70F1
330
1E
100
AcDbEntity
  8
OUTLINE
100
AcDbLine
 10
223.2734619379152
 20
379.2454778224817
 30
0.0
 11
223.2734619379152
 21
379.5454778224817
 31
0.0
  0
ARC
  5
70F2
330
1E
100
AcDbEntity
  8
OUTLINE
100
AcDbCircle
 10
222.6734619379153
 20
381.1454778224817
 30
0.0
 40
0.4
100
AcDbArc
 50
90.0
 51
180.0
  0
LINE
  5
70F3
330
1E
100
AcDbEntity
  8
OUTLINE
100
AcDbLine
 10
222.2734619379152
 20
372.6454778224817
 30
0.0
 11
222.2734619379152
 21
378.8454778224819
 31
0.0
  0
LINE
  5
70F4
330
1E
100
AcDbEntity
  8
OUTLINE
100
AcDbLine
 10
222.2734619379152
 20
379.9454778224817
 30
0.0
 11
222.2734619379152
 21
381.1454778224817
 31
0.0
  0
ARC
  5
70F5
330
1E
100
AcDbEntity
  8
OUTLINE
100
AcDbCircle
 10
222.6734619379153
 20
379.9454778224817
 30
0.0
 40
0.4
100
AcDbArc
 50
180.0
 51
270.0
  0
LINE
  5
70F6
330
1E
100
AcDbEntity
  8
OUTLINE
100
AcDbLine
 10
220.7734619379152
 20
382.5454778224819
 30
0.0
 11
220.7734619379152
 21
387.5454778224817
 31
0.0
  0
LINE
  5
70F7
330
1E
100
AcDbEntity
  8
OUTLINE
100
AcDbLine
 10
222.6734619379153
 20
381.5454778224817
 30
0.0
 11
220.7734619379152
 21
382.5454778224819
 31
0.0
  0
LINE
  5
70F8
330
1E
100
AcDbEntity
  8
OUTLINE
100
AcDbLine
 10
222.6734619379153
 20
388.5454778224817
 30
0.0
 11
220.7734619379152
 21
387.5454778224817
 31
0.0
  0
LINE
  5
70F9
330
1E
100
AcDbEntity
  8
OUTLINE
100
AcDbLine
 10
222.2734619379152
 20
382.5454778224819
 30
0.0
 11
222.2734619379152
 21
387.5454778224817
 31
0.0
  0
LINE
  5
70FA
330
1E
100
AcDbEntity
  8
OUTLINE
100
AcDbLine
 10
224.1734619379153
 20
381.5454778224817
 30
0.0
 11
222.2734619379152
 21
382.5454778224819
 31
0.0
  0
LINE
  5
70FB
330
1E
100
AcDbEntity
  8
OUTLINE
100
AcDbLine
 10
228.7734619379152
 20
382.5454778224819
 30
0.0
 11
228.7734619379152
 21
387.5454778224817
 31
0.0
  0
LINE
  5
70FC
330
1E
100
AcDbEntity
  8
OUTLINE
100
AcDbLine
 10
233.7734619379152
 20
382.5454778224819
 30
0.0
 11
233.7734619379152
 21
387.5454778224817
 31
0.0
  0
LINE
  5
70FD
330
1E
100
AcDbEntity
  8
OUTLINE
100
AcDbLine
 10
224.1734619379153
 20
381.5454778224817
 30
0.0
 11
228.7734619379152
 21
382.5454778224819
 31
0.0
  0
LINE
  5
70FE
330
1E
100
AcDbEntity
  8
OUTLINE
100
AcDbLine
 10
233.7734619379152
 20
382.5454778224819
 30
0.0
 11
235.2734619379152
 21
381.5454778224817
 31
0.0
  0
LINE
  5
70FF
330
1E
100
AcDbEntity
  8
OUTLINE
100
AcDbLine
 10
233.7734619379152
 20
382.5454778224819
 30
0.0
 11
228.7734619379152
 21
382.5454778224819
 31
0.0
  0
LINE
  5
7100
330
1E
100
AcDbEntity
  8
OUTLINE
100
AcDbLine
 10
222.2734619379152
 20
382.5454778224819
 30
0.0
 11
220.7734619379152
 21
382.5454778224819
 31
0.0
  0
LINE
  5
7101
330
1E
100
AcDbEntity
  8
OUTLINE
100
AcDbLine
 10
233.7734619379152
 20
387.5454778224817
 30
0.0
 11
235.2734619379152
 21
388.5454778224817
 31
0.0
  0
LINE
  5
7102
330
1E
100
AcDbEntity
  8
OUTLINE
100
AcDbLine
 10
233.7734619379152
 20
387.5454778224817
 30
0.0
 11
228.7734619379152
 21
387.5454778224817
 31
0.0
  0
LINE
  5
7103
330
1E
100
AcDbEntity
  8
OUTLINE
100
AcDbLine
 10
224.1734619379153
 20
388.5454778224817
 30
0.0
 11
228.7734619379152
 21
387.5454778224817
 31
0.0
  0
LINE
  5
7104
330
1E
100
AcDbEntity
  8
OUTLINE
100
AcDbLine
 10
224.1734619379153
 20
388.5454778224817
 30
0.0
 11
222.2734619379152
 21
387.5454778224817
 31
0.0
  0
LINE
  5
7105
330
1E
100
AcDbEntity
  8
OUTLINE
100
AcDbLine
 10
222.2734619379152
 20
387.5454778224817
 30
0.0
 11
220.7734619379152
 21
387.5454778224817
 31
0.0
  0
LINE
  5
7106
330
1E
100
AcDbEntity
  8
OUTLINE
100
AcDbLine
 10
254.4734619379153
 20
215.7282608224817
 30
0.0
 11
254.4734619379153
 21
256.0454778224818
 31
0.0
  0
LINE
  5
7107
330
1E
100
AcDbEntity
  8
OUTLINE
100
AcDbLine
 10
222.2734619379152
 20
388.9454778224817
 30
0.0
 11
222.2734619379152
 21
400.5454778224817
 31
0.0
  0
ARC
  5
7108
330
1E
100
AcDbEntity
  8
OUTLINE
100
AcDbCircle
 10
222.6734619379153
 20
388.9454778224817
 30
0.0
 40
0.4
100
AcDbArc
 50
180.0
 51
270.0
  0
LINE
  5
7109
330
1E
100
AcDbEntity
  8
OUTLINE
100
AcDbLine
 10
227.2734619379152
 20
390.5454778224819
 30
0.0
 11
227.2734619379152
 21
400.5454778224817
 31
0.0
  0
LINE
  5
710A
330
1E
100
AcDbEntity
  8
OUTLINE
100
AcDbLine
 10
230.2734619379152
 20
390.5454778224819
 30
0.0
 11
230.2734619379152
 21
400.5454778224817
 31
0.0
  0
LINE
  5
710B
330
1E
100
AcDbEntity
  8
OUTLINE
100
AcDbLine
 10
235.2734619379152
 20
390.5454778224819
 30
0.0
 11
230.2734619379152
 21
390.5454778224819
 31
0.0
  0
LINE
  5
710C
330
1E
100
AcDbEntity
  8
OUTLINE
100
AcDbLine
 10
227.2734619379152
 20
390.5454778224819
 30
0.0
 11
222.2734619379152
 21
390.5454778224819
 31
0.0
  0
LINE
  5
710D
330
1E
100
AcDbEntity
  8
OUTLINE
100
AcDbLine
 10
227.2734619379152
 20
400.5454778224817
 30
0.0
 11
230.2734619379152
 21
400.5454778224817
 31
0.0
  0
LINE
  5
710E
330
1E
100
AcDbEntity
  8
OUTLINE
100
AcDbLine
 10
222.2734619379152
 20
400.5454778224817
 30
0.0
 11
223.2734619379152
 21
402.0454778224817
 31
0.0
  0
LINE
  5
710F
330
1E
100
AcDbEntity
  8
OUTLINE
100
AcDbLine
 10
223.2734619379152
 20
402.0454778224817
 30
0.0
 11
225.0994469379154
 21
410.2624078224817
 31
0.0
  0
ARC
  5
7110
330
1E
100
AcDbEntity
  8
OUTLINE
100
AcDbCircle
 10
226.0756339379154
 20
410.0454778224817
 30
0.0
 40
1.0
100
AcDbArc
 50
90.0
 51
167.471192
  0
LINE
  5
7111
330
1E
100
AcDbEntity
  8
OUTLINE
100
AcDbLine
 10
227.2734619379152
 20
400.5454778224817
 30
0.0
 11
224.7734619379152
 21
402.0454778224817
 31
0.0
  0
LINE
  5
7112
330
1E
100
AcDbEntity
  8
OUTLINE
100
AcDbLine
 10
230.2734619379152
 20
400.5454778224817
 30
0.0
 11
232.7734619379152
 21
402.0454778224817
 31
0.0
  0
LINE
  5
7113
330
1E
100
AcDbEntity
  8
OUTLINE
100
AcDbLine
 10
227.7734619379152
 20
411.0454778224819
 30
0.0
 11
227.7734619379152
 21
425.0454778224817
 31
0.0
  0
ARC
  5
7114
330
1E
100
AcDbEntity
  8
OUTLINE
100
AcDbCircle
 10
222.1734619379153
 20
359.3454778224817
 30
0.0
 40
0.4
100
AcDbArc
 50
90.0
 51
180.0
  0
ARC
  5
7115
330
1E
100
AcDbEntity
  8
OUTLINE
100
AcDbCircle
 10
231.5234619379152
 20
420.0454778224819
 30
0.0
 40
6.25
100
AcDbArc
 50
53.13010200000001
 51
126.869898
  0
ARC
  5
7116
330
1E
100
AcDbEntity
  8
OUTLINE
100
AcDbCircle
 10
239.0234619379152
 20
430.0454778224817
 30
0.0
 40
6.25
100
AcDbArc
 50
233.130102
 51
306.8698979999998
  0
ARC
  5
7117
330
1E
100
AcDbEntity
  8
OUTLINE
100
AcDbCircle
 10
231.5234619379152
 20
430.0454778224817
 30
0.0
 40
6.25
100
AcDbArc
 50
233.130102
 51
306.8698979999998
  0
LINE
  5
7118
330
1E
100
AcDbEntity
  8
OUTLINE
100
AcDbLine
 10
92.32346193791533
 20
463.0454778224817
 30
0.0
 11
92.32346193791533
 21
457.0454778224819
 31
0.0
  0
LINE
  5
7119
330
1E
100
AcDbEntity
  8
OUTLINE
100
AcDbLine
 10
94.92346193791536
 20
463.0454778224817
 30
0.0
 11
94.92346193791536
 21
457.0454778224819
 31
0.0
  0
ARC
  5
711C
330
1E
100
AcDbEntity
  8
OUTLINE
100
AcDbCircle
 10
258.4597309379152
 20
251.1196488224817
 30
0.0
 40
1.0
100
AcDbArc
 50
239.9999999999999
 51
322.299981
  0
LINE
  5
711D
330
1E
100
AcDbEntity
  8
CENTER
100
AcDbLine
 10
235.2734619379152
 20
453.0454778224819
 30
0.0
 11
265.6811759379154
 21
453.0454778224819
 31
0.0
  0
LINE
  5
711E
330
1E
100
AcDbEntity
  8
CENTER
100
AcDbLine
 10
343.6234619379153
 20
365.0454778224817
 30
0.0
 11
265.6811759379154
 21
453.0454778224819
 31
0.0
  0
LINE
  5
711F
330
1E
100
AcDbEntity
  8
CENTER
100
AcDbLine
 10
235.2734619379152
 20
453.0454778224819
 30
0.0
 11
235.2734619379152
 21
323.5454778224817
 31
0.0
  0
LINE
  5
7120
330
1E
100
AcDbEntity
  8
CENTER
100
AcDbLine
 10
201.9734619379152
 20
453.0454778224819
 30
0.0
 11
201.9734619379152
 21
192.0454778224817
 31
0.0
  0
LINE
  5
7121
330
1E
100
AcDbEntity
  8
CENTER
100
AcDbLine
 10
201.9734619379152
 20
453.0454778224819
 30
0.0
 11
171.5657489379153
 21
453.0454778224819
 31
0.0
  0
LINE
  5
7122
330
1E
100
AcDbEntity
  8
CENTER
100
AcDbLine
 10
93.62346193791564
 20
365.0454778224817
 30
0.0
 11
171.5657489379153
 21
453.0454778224819
 31
0.0
  0
LINE
  5
7123
330
1E
100
AcDbEntity
  8
OUTLINE
100
AcDbLine
 10
96.12346193791541
 20
463.0454778224817
 30
0.0
 11
93.62346193791564
 21
469.0454778224817
 31
0.0
  0
LINE
  5
7124
330
1E
100
AcDbEntity
  8
OUTLINE
100
AcDbLine
 10
91.12346193791564
 20
463.0454778224817
 30
0.0
 11
93.62346193791564
 21
469.0454778224817
 31
0.0
  0
LINE
  5
7125
330
1E
100
AcDbEntity
  8
OUTLINE
100
AcDbLine
 10
96.12346193791541
 20
463.0454778224817
 30
0.0
 11
94.92346193791536
 21
463.0454778224817
 31
0.0
  0
LINE
  5
7126
330
1E
100
AcDbEntity
  8
OUTLINE
100
AcDbLine
 10
92.32346193791533
 20
463.0454778224817
 30
0.0
 11
91.12346193791564
 21
463.0454778224817
 31
0.0
  0
LINE
  5
7127
330
1E
100
AcDbEntity
  8
OUTLINE
100
AcDbLine
 10
249.7734619379152
 20
382.5454778224819
 30
0.0
 11
249.7734619379152
 21
387.5454778224817
 31
0.0
  0
LINE
  5
7128
330
1E
100
AcDbEntity
  8
OUTLINE
100
AcDbLine
 10
246.3734619379154
 20
388.5454778224817
 30
0.0
 11
248.2734619379152
 21
387.5454778224817
 31
0.0
  0
LINE
  5
7129
330
1E
100
AcDbEntity
  8
OUTLINE
100
AcDbLine
 10
254.4734619379153
 20
331.0454778224817
 30
0.0
 11
254.4734619379153
 21
275.0454778224818
 31
0.0
  0
LINE
  5
712A
330
1E
100
AcDbEntity
  8
OUTLINE
100
AcDbLine
 10
222.6734619379153
 20
338.0249288224819
 30
0.0
 11
222.6734619379153
 21
337.0454778224817
 31
0.0
  0
LINE
  5
712B
330
1E
100
AcDbEntity
  8
OUTLINE
100
AcDbLine
 10
189.3734619379154
 20
338.0249288224819
 30
0.0
 11
189.3734619379154
 21
337.0454778224817
 31
0.0
  0
LINE
  5
712C
330
1E
100
AcDbEntity
  8
OUTLINE
100
AcDbLine
 10
214.5734619379154
 20
338.0249288224819
 30
0.0
 11
214.5734619379154
 21
337.0454778224817
 31
0.0
  0
LINE
  5
712D
330
1E
100
AcDbEntity
  8
OUTLINE
100
AcDbLine
 10
247.8734619379153
 20
338.0249288224819
 30
0.0
 11
247.8734619379153
 21
337.0454778224817
 31
0.0
  0
CIRCLE
  5
712E
330
1E
100
AcDbEntity
  8
OUTLINE
100
AcDbCircle
 10
265.4734619379153
 20
265.5454778224818
 30
0.0
 40
2.25
  0
LINE
  5
712F
330
1E
100
AcDbEntity
  8
OUTLINE
100
AcDbLine
 10
214.1591329379152
 20
338.5175348224817
 30
0.0
 11
209.9734619379153
 21
339.0454778224817
 31
0.0
  0
LINE
  5
7130
330
1E
100
AcDbEntity
  8
OUTLINE
100
AcDbLine
 10
189.7877919379154
 20
338.5175348224817
 30
0.0
 11
193.9734619379153
 21
339.0454778224817
 31
0.0
  0
LINE
  5
7131
330
1E
100
AcDbEntity
  8
OUTLINE
100
AcDbLine
 10
246.3734619379154
 20
388.5454778224817
 30
0.0
 11
241.7734619379152
 21
387.5454778224817
 31
0.0
  0
LINE
  5
7132
330
1E
100
AcDbEntity
  8
OUTLINE
100
AcDbLine
 10
247.4591329379154
 20
338.5175348224817
 30
0.0
 11
243.2734619379152
 21
339.0454778224817
 31
0.0
  0
LINE
  5
7133
330
1E
100
AcDbEntity
  8
OUTLINE
100
AcDbLine
 10
236.7734619379152
 20
387.5454778224817
 30
0.0
 11
241.7734619379152
 21
387.5454778224817
 31
0.0
  0
LINE
  5
7134
330
1E
100
AcDbEntity
  8
OUTLINE
100
AcDbLine
 10
236.7734619379152
 20
387.5454778224817
 30
0.0
 11
235.2734619379152
 21
388.5454778224817
 31
0.0
  0
LINE
  5
7135
330
1E
100
AcDbEntity
  8
OUTLINE
100
AcDbLine
 10
236.7734619379152
 20
382.5454778224819
 30
0.0
 11
236.7734619379152
 21
387.5454778224817
 31
0.0
  0
LINE
  5
7136
330
1E
100
AcDbEntity
  8
OUTLINE
100
AcDbLine
 10
223.0877919379154
 20
338.5175348224817
 30
0.0
 11
227.2734619379152
 21
339.0454778224817
 31
0.0
  0
LINE
  5
7137
330
1E
100
AcDbEntity
  8
OUTLINE
100
AcDbLine
 10
241.7734619379152
 20
382.5454778224819
 30
0.0
 11
241.7734619379152
 21
387.5454778224817
 31
0.0
  0
ARC
  5
7138
330
1E
100
AcDbEntity
  8
OUTLINE
100
AcDbCircle
 10
256.4871939379154
 20
252.2584938224817
 30
0.0
 40
1.0
100
AcDbArc
 50
157.7000189999999
 51
239.9999999999999
  0
ARC
  5
7139
330
1E
100
AcDbEntity
  8
OUTLINE
100
AcDbCircle
 10
281.4734619379153
 20
266.6843228224818
 30
0.0
 40
1.0
100
AcDbArc
 50
0.0
 51
82.29998100000001
  0
LINE
  5
713A
330
1E
100
AcDbEntity
  8
OUTLINE
100
AcDbLine
 10
248.2734619379152
 20
382.5454778224819
 30
0.0
 11
248.2734619379152
 21
387.5454778224817
 31
0.0
  0
LINE
  5
713B
330
1E
100
AcDbEntity
  8
OUTLINE
100
AcDbLine
 10
246.3734619379154
 20
381.5454778224817
 30
0.0
 11
248.2734619379152
 21
382.5454778224819
 31
0.0
  0
ARC
  5
713C
330
1E
100
AcDbEntity
  8
OUTLINE
100
AcDbCircle
 10
159.4734619379153
 20
317.8651378224817
 30
0.0
 40
10.0
100
AcDbArc
 50
116.565051
 51
180.0
  0
LINE
  5
713D
330
1E
100
AcDbEntity
  8
OUTLINE
100
AcDbLine
 10
246.3734619379154
 20
381.5454778224817
 30
0.0
 11
241.7734619379152
 21
382.5454778224819
 31
0.0
  0
LINE
  5
713E
330
1E
100
AcDbEntity
  8
OUTLINE
100
AcDbLine
 10
236.7734619379152
 20
382.5454778224819
 30
0.0
 11
241.7734619379152
 21
382.5454778224819
 31
0.0
  0
LINE
  5
713F
330
1E
100
AcDbEntity
  8
OUTLINE
100
AcDbLine
 10
236.7734619379152
 20
382.5454778224819
 30
0.0
 11
235.2734619379152
 21
381.5454778224817
 31
0.0
  0
ARC
  5
7140
330
1E
100
AcDbEntity
  8
OUTLINE
100
AcDbCircle
 10
248.4734619379153
 20
331.0454778224817
 30
0.0
 40
6.0
100
AcDbArc
 50
0.0
 51
90.0
  0
ARC
  5
7141
330
1E
100
AcDbEntity
  8
OUTLINE
100
AcDbCircle
 10
247.8734619379153
 20
381.1454778224817
 30
0.0
 40
0.4
100
AcDbArc
 50
0.0
 51
90.0
  0
ARC
  5
7142
330
1E
100
AcDbEntity
  8
OUTLINE
100
AcDbCircle
 10
247.8734619379153
 20
379.9454778224817
 30
0.0
 40
0.4
100
AcDbArc
 50
270.0
 51
0.0
  0
LINE
  5
7143
330
1E
100
AcDbEntity
  8
OUTLINE
100
AcDbLine
 10
248.2734619379152
 20
379.9454778224817
 30
0.0
 11
248.2734619379152
 21
381.1454778224817
 31
0.0
  0
LINE
  5
7144
330
1E
100
AcDbEntity
  8
OUTLINE
100
AcDbLine
 10
247.2734619379152
 20
379.2454778224817
 30
0.0
 11
247.2734619379152
 21
379.5454778224817
 31
0.0
  0
ARC
  5
7145
330
1E
100
AcDbEntity
  8
OUTLINE
100
AcDbCircle
 10
247.8734619379153
 20
378.8454778224819
 30
0.0
 40
0.4
100
AcDbArc
 50
0.0
 51
90.0
  0
LINE
  5
7146
330
1E
100
AcDbEntity
  8
OUTLINE
100
AcDbLine
 10
248.2734619379152
 20
372.6454778224817
 30
0.0
 11
248.2734619379152
 21
378.8454778224819
 31
0.0
  0
ARC
  5
7147
330
1E
100
AcDbEntity
  8
OUTLINE
100
AcDbCircle
 10
247.8734619379153
 20
372.6454778224817
 30
0.0
 40
0.4
100
AcDbArc
 50
270.0
 51
0.0
  0
LINE
  5
7148
330
1E
100
AcDbEntity
  8
OUTLINE
100
AcDbLine
 10
247.2734619379152
 20
369.7454778224817
 30
0.0
 11
247.2734619379152
 21
372.2454778224817
 31
0.0
  0
LINE
  5
7149
330
1E
100
AcDbEntity
  8
OUTLINE
100
AcDbLine
 10
249.5734619379154
 20
365.2454778224817
 30
0.0
 11
249.5734619379154
 21
369.2454778224819
 31
0.0
  0
LINE
  5
714A
330
1E
100
AcDbEntity
  8
OUTLINE
100
AcDbLine
 10
248.7734619379152
 20
365.2454778224817
 30
0.0
 11
249.5734619379154
 21
365.2454778224817
 31
0.0
  0
LINE
  5
714B
330
1E
100
AcDbEntity
  8
OUTLINE
100
AcDbLine
 10
248.7734619379152
 20
369.2454778224819
 30
0.0
 11
249.5734619379154
 21
369.2454778224819
 31
0.0
  0
LINE
  5
714C
330
1E
100
AcDbEntity
  8
OUTLINE
100
AcDbLine
 10
245.7734619379152
 20
359.7454778224817
 30
0.0
 11
245.7734619379152
 21
364.7454778224817
 31
0.0
  0
ARC
  5
714D
330
1E
100
AcDbEntity
  8
OUTLINE
100
AcDbCircle
 10
248.3734619379154
 20
369.3454778224817
 30
0.0
 40
0.4
100
AcDbArc
 50
0.0
 51
90.0
  0
ARC
  5
714E
330
1E
100
AcDbEntity
  8
OUTLINE
100
AcDbCircle
 10
248.3734619379154
 20
365.1454778224817
 30
0.0
 40
0.4
100
AcDbArc
 50
270.0
 51
0.0
  0
LINE
  5
714F
330
1E
100
AcDbEntity
  8
OUTLINE
100
AcDbLine
 10
248.7734619379152
 20
365.1454778224817
 30
0.0
 11
248.7734619379152
 21
369.3454778224817
 31
0.0
  0
LINE
  5
7150
330
1E
100
AcDbEntity
  8
OUTLINE
100
AcDbLine
 10
282.4734619379153
 20
266.6843228224818
 30
0.0
 11
282.4734619379153
 21
264.4066328224818
 31
0.0
  0
ARC
  5
7151
330
1E
100
AcDbEntity
  8
OUTLINE
100
AcDbCircle
 10
281.4734619379153
 20
264.4066328224818
 30
0.0
 40
1.0
100
AcDbArc
 50
277.700019
 51
0.0
  0
LINE
  5
7152
330
1E
100
AcDbEntity
  8
OUTLINE
100
AcDbLine
 10
281.6074489379152
 20
263.4156498224819
 30
0.0
 11
270.2206269379153
 21
261.8760878224818
 31
0.0
  0
LINE
  5
7153
330
1E
100
AcDbEntity
  8
OUTLINE
100
AcDbLine
 10
281.6074489379152
 20
267.6753058224818
 30
0.0
 11
270.2206269379153
 21
269.2148678224818
 31
0.0
  0
LINE
  5
7154
330
1E
100
AcDbEntity
  8
OUTLINE
100
AcDbLine
 10
255.9871939379154
 20
279.6984868224817
 30
0.0
 11
257.9597309379153
 21
280.8373318224818
 31
0.0
  0
LINE
  5
7155
330
1E
100
AcDbEntity
  8
OUTLINE
100
AcDbLine
 10
247.8734619379153
 20
381.5454778224817
 30
0.0
 11
249.7734619379152
 21
382.5454778224819
 31
0.0
  0
LINE
  5
7156
330
1E
100
AcDbEntity
  8
OUTLINE
100
AcDbLine
 10
248.2734619379152
 20
382.5454778224819
 30
0.0
 11
249.7734619379152
 21
382.5454778224819
 31
0.0
  0
LINE
  5
7157
330
1E
100
AcDbEntity
  8
OUTLINE
100
AcDbLine
 10
248.2734619379152
 20
387.5454778224817
 30
0.0
 11
249.7734619379152
 21
387.5454778224817
 31
0.0
  0
LINE
  5
7158
330
1E
100
AcDbEntity
  8
OUTLINE
100
AcDbLine
 10
240.2734619379152
 20
400.5454778224817
 30
0.0
 11
237.7734619379152
 21
402.0454778224817
 31
0.0
  0
LINE
  5
7159
330
1E
100
AcDbEntity
  8
OUTLINE
100
AcDbLine
 10
243.2734619379152
 20
400.5454778224817
 30
0.0
 11
240.2734619379152
 21
400.5454778224817
 31
0.0
  0
LINE
  5
715A
330
1E
100
AcDbEntity
  8
OUTLINE
100
AcDbLine
 10
243.2734619379152
 20
400.5454778224817
 30
0.0
 11
245.7734619379152
 21
402.0454778224817
 31
0.0
  0
LINE
  5
715B
330
1E
100
AcDbEntity
  8
OUTLINE
100
AcDbLine
 10
240.2734619379152
 20
390.5454778224819
 30
0.0
 11
240.2734619379152
 21
400.5454778224817
 31
0.0
  0
LINE
  5
715C
330
1E
100
AcDbEntity
  8
OUTLINE
100
AcDbLine
 10
235.2734619379152
 20
390.5454778224819
 30
0.0
 11
240.2734619379152
 21
390.5454778224819
 31
0.0
  0
LINE
  5
715D
330
1E
100
AcDbEntity
  8
OUTLINE
100
AcDbLine
 10
243.2734619379152
 20
390.5454778224819
 30
0.0
 11
248.2734619379152
 21
390.5454778224819
 31
0.0
  0
LINE
  5
715E
330
1E
100
AcDbEntity
  8
OUTLINE
100
AcDbLine
 10
243.2734619379152
 20
390.5454778224819
 30
0.0
 11
243.2734619379152
 21
400.5454778224817
 31
0.0
  0
LINE
  5
715F
330
1E
100
AcDbEntity
  8
OUTLINE
100
AcDbLine
 10
242.7734619379152
 20
411.0454778224819
 30
0.0
 11
242.7734619379152
 21
425.0454778224817
 31
0.0
  0
LINE
  5
7160
330
1E
100
AcDbEntity
  8
OUTLINE
100
AcDbLine
 10
190.6942209379153
 20
342.0454778224817
 30
0.0
 11
213.2527029379152
 21
342.0454778224817
 31
0.0
  0
LINE
  5
7161
330
1E
100
AcDbEntity
  8
OUTLINE
100
AcDbLine
 10
214.4734619379153
 20
344.5454778224817
 30
0.0
 11
214.4734619379153
 21
346.7454778224817
 31
0.0
  0
LINE
  5
7162
330
1E
100
AcDbEntity
  8
OUTLINE
100
AcDbLine
 10
149.4734619379153
 20
215.7282608224817
 30
0.0
 11
149.4734619379153
 21
256.0454778224818
 31
0.0
  0
LINE
  5
7163
330
1E
100
AcDbEntity
  8
OUTLINE
100
AcDbLine
 10
155.0013259379156
 20
326.8094098224817
 30
0.0
 11
175.4984649379154
 21
336.1458658224817
 31
0.0
  0
LINE
  5
7164
330
1E
100
AcDbEntity
  8
OUTLINE
100
AcDbLine
 10
214.2013859379153
 20
342.7292498224817
 30
0.0
 11
214.8155149379145
 21
344.0716358224817
 31
0.0
  0
LINE
  5
7165
330
1E
100
AcDbEntity
  8
OUTLINE
100
AcDbLine
 10
255.5619839379153
 20
278.4530058224817
 30
0.0
 11
256.9595119379152
 21
275.0454778224818
 31
0.0
  0
ARC
  5
7166
330
1E
100
AcDbEntity
  8
OUTLINE
100
AcDbCircle
 10
213.2527029379152
 20
343.0454778224817
 30
0.0
 40
1.0
100
AcDbArc
 50
270.0
 51
341.5650509999998
  0
LINE
  5
7167
330
1E
100
AcDbEntity
  8
OUTLINE
100
AcDbLine
 10
259.2509539379152
 20
280.5828338224817
 30
0.0
 11
263.5307119379153
 21
275.0454778224818
 31
0.0
  0
ARC
  5
7168
330
1E
100
AcDbEntity
  8
OUTLINE
100
AcDbCircle
 10
256.4871939379154
 20
278.8324618224817
 30
0.0
 40
1.0
100
AcDbArc
 50
119.9999999999999
 51
202.2999809999999
  0
ARC
  5
7169
330
1E
100
AcDbEntity
  8
OUTLINE
100
AcDbCircle
 10
258.4597309379152
 20
279.9713068224817
 30
0.0
 40
1.0
100
AcDbArc
 50
37.700019
 51
119.9999999999999
  0
LINE
  5
716A
330
1E
100
AcDbEntity
  8
CENTER
100
AcDbLine
 10
343.6234619379153
 20
365.0454778224817
 30
0.0
 11
343.6234619379153
 21
439.8681781675354
 31
0.0
  0
LINE
  5
716C
330
1E
100
AcDbEntity
  8
OUTLINE
100
AcDbLine
 10
257.9597309379153
 20
250.2536238224818
 30
0.0
 11
255.9871939379154
 21
251.3924678224818
 31
0.0
  0
LINE
  5
716D
330
1E
100
AcDbEntity
  8
OUTLINE
100
AcDbLine
 10
259.2509539379152
 20
250.5081218224818
 30
0.0
 11
263.5307119379153
 21
256.0454778224818
 31
0.0
  0
LINE
  5
716E
330
1E
100
AcDbEntity
  8
OUTLINE
100
AcDbLine
 10
255.5619839379153
 20
252.6379498224818
 30
0.0
 11
256.9595119379152
 21
256.0454778224818
 31
0.0
  0
ARC
  5
716F
330
1E
100
AcDbEntity
  8
OUTLINE
100
AcDbCircle
 10
265.4734619379153
 20
265.5454778224818
 30
0.0
 40
6.0
100
AcDbArc
 50
37.702754
 51
48.189685
  0
LINE
  5
7170
330
1E
100
AcDbEntity
  8
OUTLINE
100
AcDbLine
 10
149.4734619379153
 20
275.0454778224818
 30
0.0
 11
149.4734619379153
 21
317.8651378224817
 31
0.0
  0
ARC
  5
7171
330
1E
100
AcDbEntity
  8
OUTLINE
100
AcDbCircle
 10
214.4739889379154
 20
344.1854778224817
 30
0.0
 40
0.36
100
AcDbArc
 50
341.5650509999998
 51
90.0
  0
LINE
  5
7172
330
1E
100
AcDbEntity
  8
OUTLINE
100
AcDbLine
 10
215.4734619379153
 20
356.2454778224817
 30
0.0
 11
215.4734619379153
 21
359.3454778224817
 31
0.0
  0
LINE
  5
7173
330
1E
100
AcDbEntity
  8
OUTLINE
100
AcDbLine
 10
215.6082889379145
 20
347.1236118224817
 30
0.0
 11
216.0383049379154
 21
347.4574258224817
 31
0.0
  0
ARC
  5
7174
330
1E
100
AcDbEntity
  8
OUTLINE
100
AcDbCircle
 10
179.6436959379153
 20
327.0454778224817
 30
0.0
 40
10.0
100
AcDbArc
 50
90.0
 51
114.4892859999999
  0
ARC
  5
7175
330
1E
100
AcDbEntity
  8
OUTLINE
100
AcDbCircle
 10
214.5045229379154
 20
348.5454778224819
 30
0.0
 40
1.8
100
AcDbArc
 50
270.0
 51
307.8214709999998
  0
ARC
  5
7176
330
1E
100
AcDbEntity
  8
OUTLINE
100
AcDbCircle
 10
265.4734619379153
 20
265.5454778224818
 30
0.0
 40
6.0
100
AcDbArc
 50
311.810315
 51
322.297246
  0
ARC
  5
7177
330
1E
100
AcDbEntity
  8
OUTLINE
100
AcDbCircle
 10
215.4251019379153
 20
348.2473508224817
 30
0.0
 40
1.0
100
AcDbArc
 50
307.8214709999998
 51
323.82112
  0
LINE
  5
7178
330
1E
100
AcDbEntity
  8
OUTLINE
100
AcDbLine
 10
214.5734619379154
 20
388.5454778224817
 30
0.0
 11
216.4734619379153
 21
387.5454778224817
 31
0.0
  0
LINE
  5
7179
330
1E
100
AcDbEntity
  8
OUTLINE
100
AcDbLine
 10
214.9734619379153
 20
388.9454778224817
 30
0.0
 11
214.9734619379153
 21
400.5454778224817
 31
0.0
  0
ARC
  5
717A
330
1E
100
AcDbEntity
  8
OUTLINE
100
AcDbCircle
 10
214.5734619379154
 20
388.9454778224817
 30
0.0
 40
0.4
100
AcDbArc
 50
270.0
 51
0.0
  0
LINE
  5
717B
330
1E
100
AcDbEntity
  8
OUTLINE
100
AcDbLine
 10
214.9734619379153
 20
400.5454778224817
 30
0.0
 11
213.9734619379153
 21
402.0454778224817
 31
0.0
  0
LINE
  5
717C
330
1E
100
AcDbEntity
  8
OUTLINE
100
AcDbLine
 10
213.9734619379153
 20
402.0454778224817
 30
0.0
 11
212.1474779379152
 21
410.2624078224817
 31
0.0
  0
LINE
  5
717D
330
1E
100
AcDbEntity
  8
OUTLINE
100
AcDbLine
 10
248.4734619379153
 20
337.0454778224817
 30
0.0
 11
179.6436959379153
 21
337.0454778224817
 31
0.0
  0
LINE
  5
717E
330
1E
100
AcDbEntity
  8
OUTLINE
100
AcDbLine
 10
209.9734619379153
 20
339.0454778224817
 30
0.0
 11
193.9734619379153
 21
339.0454778224817
 31
0.0
  0
ARC
  5
717F
330
1E
100
AcDbEntity
  8
OUTLINE
100
AcDbCircle
 10
211.1712909379152
 20
410.0454778224817
 30
0.0
 40
1.0
100
AcDbArc
 50
12.52880799999999
 51
90.0
  0
LINE
  5
7180
330
1E
100
AcDbEntity
  8
OUTLINE
100
AcDbLine
 10
201.9734619379152
 20
388.5454778224817
 30
0.0
 11
207.2734619379152
 21
388.5454778224817
 31
0.0
  0
LINE
  5
7181
330
1E
100
AcDbEntity
  8
OUTLINE
100
AcDbLine
 10
243.2734619379152
 20
339.0454778224817
 30
0.0
 11
227.2734619379152
 21
339.0454778224817
 31
0.0
  0
LINE
  5
7182
330
1E
100
AcDbEntity
  8
OUTLINE
100
AcDbLine
 10
269.4734619379153
 20
256.0454778224818
 30
0.0
 11
269.4734619379153
 21
275.0454778224818
 31
0.0
  0
LINE
  5
7183
330
1E
100
AcDbEntity
  8
OUTLINE
100
AcDbLine
 10
225.2734619379152
 20
337.0454778224817
 30
0.0
 11
211.9734619379153
 21
337.0454778224817
 31
0.0
  0
ARC
  5
7184
330
1E
100
AcDbEntity
  8
OUTLINE
100
AcDbCircle
 10
215.0734619379154
 20
359.3454778224817
 30
0.0
 40
0.4
100
AcDbArc
 50
0.0
 51
90.0
  0
LINE
  5
7185
330
1E
100
AcDbEntity
  8
OUTLINE
100
AcDbLine
 10
201.9734619379152
 20
388.5454778224817
 30
0.0
 11
204.9734619379153
 21
388.5454778224817
 31
0.0
  0
LINE
  5
7186
330
1E
100
AcDbEntity
  8
OUTLINE
100
AcDbLine
 10
214.5734619379154
 20
372.2454778224817
 30
0.0
 11
189.3734619379154
 21
372.2454778224817
 31
0.0
  0
LINE
  5
7187
330
1E
100
AcDbEntity
  8
OUTLINE
100
AcDbLine
 10
201.9734619379152
 20
372.2454778224817
 30
0.0
 11
189.3734619379154
 21
372.2454778224817
 31
0.0
  0
LINE
  5
7188
330
1E
100
AcDbEntity
  8
OUTLINE
100
AcDbLine
 10
214.4739889379154
 20
344.5454778224817
 30
0.0
 11
189.4729359379152
 21
344.5454778224817
 31
0.0
  0
LINE
  5
7189
330
1E
100
AcDbEntity
  8
OUTLINE
100
AcDbLine
 10
214.5045229379154
 20
346.7454778224817
 30
0.0
 11
189.4424019379153
 21
346.7454778224817
 31
0.0
  0
LINE
  5
718A
330
1E
100
AcDbEntity
  8
OUTLINE
100
AcDbLine
 10
215.4734619379153
 20
356.2454778224817
 30
0.0
 11
188.4734619379153
 21
356.2454778224817
 31
0.0
  0
LINE
  5
718B
330
1E
100
AcDbEntity
  8
OUTLINE
100
AcDbLine
 10
215.0734619379154
 20
359.7454778224817
 30
0.0
 11
188.8734619379154
 21
359.7454778224817
 31
0.0
  0
LINE
  5
718C
330
1E
100
AcDbEntity
  8
OUTLINE
100
AcDbLine
 10
215.0734619379154
 20
364.7454778224817
 30
0.0
 11
188.8734619379154
 21
364.7454778224817
 31
0.0
  0
LINE
  5
718D
330
1E
100
AcDbEntity
  8
OUTLINE
100
AcDbLine
 10
215.0734619379154
 20
369.7454778224817
 30
0.0
 11
188.8734619379154
 21
369.7454778224817
 31
0.0
  0
LINE
  5
718E
330
1E
100
AcDbEntity
  8
OUTLINE
100
AcDbLine
 10
214.5734619379154
 20
379.2454778224817
 30
0.0
 11
189.3734619379154
 21
379.2454778224817
 31
0.0
  0
LINE
  5
718F
330
1E
100
AcDbEntity
  8
OUTLINE
100
AcDbLine
 10
214.5734619379154
 20
379.5454778224817
 30
0.0
 11
189.3734619379154
 21
379.5454778224817
 31
0.0
  0
LINE
  5
7190
330
1E
100
AcDbEntity
  8
OUTLINE
100
AcDbLine
 10
214.5734619379154
 20
381.5454778224817
 30
0.0
 11
189.3734619379154
 21
381.5454778224817
 31
0.0
  0
LINE
  5
7191
330
1E
100
AcDbEntity
  8
OUTLINE
100
AcDbLine
 10
214.5734619379154
 20
388.5454778224817
 30
0.0
 11
189.3734619379154
 21
388.5454778224817
 31
0.0
  0
LINE
  5
7192
330
1E
100
AcDbEntity
  8
OUTLINE
100
AcDbLine
 10
213.9734619379153
 20
402.0454778224817
 30
0.0
 11
189.9734619379153
 21
402.0454778224817
 31
0.0
  0
LINE
  5
7193
330
1E
100
AcDbEntity
  8
OUTLINE
100
AcDbLine
 10
211.1712909379152
 20
411.0454778224819
 30
0.0
 11
192.7756339379152
 21
411.0454778224819
 31
0.0
  0
LINE
  5
7194
330
1E
100
AcDbEntity
  8
OUTLINE
100
AcDbLine
 10
189.4734619379153
 20
344.5454778224817
 30
0.0
 11
189.4734619379153
 21
346.7454778224817
 31
0.0
  0
LINE
  5
7195
330
1E
100
AcDbEntity
  8
OUTLINE
100
AcDbLine
 10
189.7455379379152
 20
342.7292498224817
 30
0.0
 11
189.1314099379153
 21
344.0716358224817
 31
0.0
  0
ARC
  5
7196
330
1E
100
AcDbEntity
  8
OUTLINE
100
AcDbCircle
 10
190.6942209379153
 20
343.0454778224817
 30
0.0
 40
1.0
100
AcDbArc
 50
198.4349489999999
 51
270.0
  0
ARC
  5
7197
330
1E
100
AcDbEntity
  8
OUTLINE
100
AcDbCircle
 10
189.4729359379152
 20
344.1854778224817
 30
0.0
 40
0.36
100
AcDbArc
 50
90.0
 51
198.4349489999999
  0
LINE
  5
7198
330
1E
100
AcDbEntity
  8
OUTLINE
100
AcDbLine
 10
188.4734619379153
 20
356.2454778224817
 30
0.0
 11
188.4734619379153
 21
359.3454778224817
 31
0.0
  0
LINE
  5
7199
330
1E
100
AcDbEntity
  8
OUTLINE
100
AcDbLine
 10
188.3386359379153
 20
347.1236118224817
 30
0.0
 11
187.9086199379153
 21
347.4574258224817
 31
0.0
  0
ARC
  5
719A
330
1E
100
AcDbEntity
  8
OUTLINE
100
AcDbCircle
 10
189.4424019379153
 20
348.5454778224819
 30
0.0
 40
1.8
100
AcDbArc
 50
232.178529
 51
270.0
  0
ARC
  5
719B
330
1E
100
AcDbEntity
  8
OUTLINE
100
AcDbCircle
 10
188.5218229379154
 20
348.2473508224817
 30
0.0
 40
1.0
100
AcDbArc
 50
216.17888
 51
232.178529
  0
ARC
  5
719C
330
1E
100
AcDbEntity
  8
OUTLINE
100
AcDbCircle
 10
189.8734619379154
 20
338.0249288224819
 30
0.0
 40
0.5
100
AcDbArc
 50
99.86580700000001
 51
180.0
  0
ARC
  5
719D
330
1E
100
AcDbEntity
  8
OUTLINE
100
AcDbCircle
 10
214.0734619379154
 20
338.0249288224819
 30
0.0
 40
0.5
100
AcDbArc
 50
0.0
 51
80.13419300000002
  0
LINE
  5
719E
330
1E
100
AcDbEntity
  8
OUTLINE
100
AcDbLine
 10
191.4734619379153
 20
359.7454778224817
 30
0.0
 11
191.4734619379153
 21
364.7454778224817
 31
0.0
  0
LINE
  5
719F
330
1E
100
AcDbEntity
  8
OUTLINE
100
AcDbLine
 10
188.4734619379153
 20
365.1454778224817
 30
0.0
 11
188.4734619379153
 21
369.3454778224817
 31
0.0
  0
LINE
  5
71A0
330
1E
100
AcDbEntity
  8
OUTLINE
100
AcDbLine
 10
187.6734619379153
 20
365.2454778224817
 30
0.0
 11
187.6734619379153
 21
369.2454778224819
 31
0.0
  0
LINE
  5
71A1
330
1E
100
AcDbEntity
  8
OUTLINE
100
AcDbLine
 10
188.4734619379153
 20
365.2454778224817
 30
0.0
 11
187.6734619379153
 21
365.2454778224817
 31
0.0
  0
LINE
  5
71A2
330
1E
100
AcDbEntity
  8
OUTLINE
100
AcDbLine
 10
188.4734619379153
 20
369.2454778224819
 30
0.0
 11
187.6734619379153
 21
369.2454778224819
 31
0.0
  0
ARC
  5
71A3
330
1E
100
AcDbEntity
  8
OUTLINE
100
AcDbCircle
 10
188.8734619379154
 20
369.3454778224817
 30
0.0
 40
0.4
100
AcDbArc
 50
90.0
 51
180.0
  0
ARC
  5
71A4
330
1E
100
AcDbEntity
  8
OUTLINE
100
AcDbCircle
 10
188.8734619379154
 20
365.1454778224817
 30
0.0
 40
0.4
100
AcDbArc
 50
180.0
 51
270.0
  0
LINE
  5
71A5
330
1E
100
AcDbEntity
  8
OUTLINE
100
AcDbLine
 10
189.9734619379153
 20
369.7454778224817
 30
0.0
 11
189.9734619379153
 21
372.2454778224817
 31
0.0
  0
ARC
  5
71A6
330
1E
100
AcDbEntity
  8
OUTLINE
100
AcDbCircle
 10
189.3734619379154
 20
372.6454778224817
 30
0.0
 40
0.4
100
AcDbArc
 50
180.0
 51
270.0
  0
ARC
  5
71A7
330
1E
100
AcDbEntity
  8
OUTLINE
100
AcDbCircle
 10
189.3734619379154
 20
378.8454778224819
 30
0.0
 40
0.4
100
AcDbArc
 50
90.0
 51
180.0
  0
LINE
  5
71A8
330
1E
100
AcDbEntity
  8
OUTLINE
100
AcDbLine
 10
189.9734619379153
 20
379.2454778224817
 30
0.0
 11
189.9734619379153
 21
379.5454778224817
 31
0.0
  0
ARC
  5
71A9
330
1E
100
AcDbEntity
  8
OUTLINE
100
AcDbCircle
 10
189.3734619379154
 20
381.1454778224817
 30
0.0
 40
0.4
100
AcDbArc
 50
90.0
 51
180.0
  0
ARC
  5
71AA
330
1E
100
AcDbEntity
  8
OUTLINE
100
AcDbCircle
 10
223.1734619379153
 20
338.0249288224819
 30
0.0
 40
0.5
100
AcDbArc
 50
99.86580700000001
 51
180.0
  0
ARC
  5
71AB
330
1E
100
AcDbEntity
  8
OUTLINE
100
AcDbCircle
 10
247.3734619379154
 20
338.0249288224819
 30
0.0
 40
0.5
100
AcDbArc
 50
0.0
 51
80.13419300000002
  0
LINE
  5
71AC
330
1E
100
AcDbEntity
  8
OUTLINE
100
AcDbLine
 10
188.9734619379153
 20
372.6454778224817
 30
0.0
 11
188.9734619379153
 21
378.8454778224819
 31
0.0
  0
LINE
  5
71AD
330
1E
100
AcDbEntity
  8
OUTLINE
100
AcDbLine
 10
188.9734619379153
 20
379.9454778224817
 30
0.0
 11
188.9734619379153
 21
381.1454778224817
 31
0.0
  0
ARC
  5
71AE
330
1E
100
AcDbEntity
  8
OUTLINE
100
AcDbCircle
 10
189.3734619379154
 20
379.9454778224817
 30
0.0
 40
0.4
100
AcDbArc
 50
180.0
 51
270.0
  0
LINE
  5
71AF
330
1E
100
AcDbEntity
  8
OUTLINE
100
AcDbLine
 10
187.4734619379153
 20
382.5454778224819
 30
0.0
 11
187.4734619379153
 21
387.5454778224817
 31
0.0
  0
LINE
  5
71B0
330
1E
100
AcDbEntity
  8
OUTLINE
100
AcDbLine
 10
189.3734619379154
 20
381.5454778224817
 30
0.0
 11
187.4734619379153
 21
382.5454778224819
 31
0.0
  0
LINE
  5
71B1
330
1E
100
AcDbEntity
  8
OUTLINE
100
AcDbLine
 10
189.3734619379154
 20
388.5454778224817
 30
0.0
 11
187.4734619379153
 21
387.5454778224817
 31
0.0
  0
LINE
  5
71B2
330
1E
100
AcDbEntity
  8
OUTLINE
100
AcDbLine
 10
188.9734619379153
 20
382.5454778224819
 30
0.0
 11
188.9734619379153
 21
387.5454778224817
 31
0.0
  0
LINE
  5
71B3
330
1E
100
AcDbEntity
  8
OUTLINE
100
AcDbLine
 10
190.8734619379154
 20
381.5454778224817
 30
0.0
 11
188.9734619379153
 21
382.5454778224819
 31
0.0
  0
LINE
  5
71B4
330
1E
100
AcDbEntity
  8
OUTLINE
100
AcDbLine
 10
195.4734619379153
 20
382.5454778224819
 30
0.0
 11
195.4734619379153
 21
387.5454778224817
 31
0.0
  0
LINE
  5
71B5
330
1E
100
AcDbEntity
  8
OUTLINE
100
AcDbLine
 10
200.4734619379153
 20
382.5454778224819
 30
0.0
 11
200.4734619379153
 21
387.5454778224817
 31
0.0
  0
LINE
  5
71B6
330
1E
100
AcDbEntity
  8
OUTLINE
100
AcDbLine
 10
190.8734619379154
 20
381.5454778224817
 30
0.0
 11
195.4734619379153
 21
382.5454778224819
 31
0.0
  0
LINE
  5
71B7
330
1E
100
AcDbEntity
  8
OUTLINE
100
AcDbLine
 10
200.4734619379153
 20
382.5454778224819
 30
0.0
 11
201.9734619379152
 21
381.5454778224817
 31
0.0
  0
LINE
  5
71B8
330
1E
100
AcDbEntity
  8
OUTLINE
100
AcDbLine
 10
200.4734619379153
 20
382.5454778224819
 30
0.0
 11
195.4734619379153
 21
382.5454778224819
 31
0.0
  0
LINE
  5
71B9
330
1E
100
AcDbEntity
  8
OUTLINE
100
AcDbLine
 10
188.9734619379153
 20
382.5454778224819
 30
0.0
 11
187.4734619379153
 21
382.5454778224819
 31
0.0
  0
LINE
  5
71BA
330
1E
100
AcDbEntity
  8
OUTLINE
100
AcDbLine
 10
200.4734619379153
 20
387.5454778224817
 30
0.0
 11
201.9734619379152
 21
388.5454778224817
 31
0.0
  0
LINE
  5
71BB
330
1E
100
AcDbEntity
  8
OUTLINE
100
AcDbLine
 10
200.4734619379153
 20
387.5454778224817
 30
0.0
 11
195.4734619379153
 21
387.5454778224817
 31
0.0
  0
LINE
  5
71BC
330
1E
100
AcDbEntity
  8
OUTLINE
100
AcDbLine
 10
190.8734619379154
 20
388.5454778224817
 30
0.0
 11
195.4734619379153
 21
387.5454778224817
 31
0.0
  0
LINE
  5
71BD
330
1E
100
AcDbEntity
  8
OUTLINE
100
AcDbLine
 10
190.8734619379154
 20
388.5454778224817
 30
0.0
 11
188.9734619379153
 21
387.5454778224817
 31
0.0
  0
LINE
  5
71BE
330
1E
100
AcDbEntity
  8
OUTLINE
100
AcDbLine
 10
188.9734619379153
 20
387.5454778224817
 30
0.0
 11
187.4734619379153
 21
387.5454778224817
 31
0.0
  0
LINE
  5
71BF
330
1E
100
AcDbEntity
  8
OUTLINE
100
AcDbLine
 10
188.9734619379153
 20
388.9454778224817
 30
0.0
 11
188.9734619379153
 21
400.5454778224817
 31
0.0
  0
ARC
  5
71C0
330
1E
100
AcDbEntity
  8
OUTLINE
100
AcDbCircle
 10
189.3734619379154
 20
388.9454778224817
 30
0.0
 40
0.4
100
AcDbArc
 50
180.0
 51
270.0
  0
LINE
  5
71C1
330
1E
100
AcDbEntity
  8
OUTLINE
100
AcDbLine
 10
193.9734619379153
 20
390.5454778224819
 30
0.0
 11
193.9734619379153
 21
400.5454778224817
 31
0.0
  0
LINE
  5
71C2
330
1E
100
AcDbEntity
  8
OUTLINE
100
AcDbLine
 10
196.9734619379153
 20
390.5454778224819
 30
0.0
 11
196.9734619379153
 21
400.5454778224817
 31
0.0
  0
LINE
  5
71C3
330
1E
100
AcDbEntity
  8
OUTLINE
100
AcDbLine
 10
201.9734619379152
 20
390.5454778224819
 30
0.0
 11
196.9734619379153
 21
390.5454778224819
 31
0.0
  0
LINE
  5
71C4
330
1E
100
AcDbEntity
  8
OUTLINE
100
AcDbLine
 10
193.9734619379153
 20
390.5454778224819
 30
0.0
 11
188.9734619379153
 21
390.5454778224819
 31
0.0
  0
LINE
  5
71C5
330
1E
100
AcDbEntity
  8
OUTLINE
100
AcDbLine
 10
193.9734619379153
 20
400.5454778224817
 30
0.0
 11
196.9734619379153
 21
400.5454778224817
 31
0.0
  0
LINE
  5
71C6
330
1E
100
AcDbEntity
  8
OUTLINE
100
AcDbLine
 10
188.9734619379153
 20
400.5454778224817
 30
0.0
 11
189.9734619379153
 21
402.0454778224817
 31
0.0
  0
LINE
  5
71C7
330
1E
100
AcDbEntity
  8
OUTLINE
100
AcDbLine
 10
189.9734619379153
 20
402.0454778224817
 30
0.0
 11
191.7994469379152
 21
410.2624078224817
 31
0.0
  0
ARC
  5
71C8
330
1E
100
AcDbEntity
  8
OUTLINE
100
AcDbCircle
 10
192.7756339379152
 20
410.0454778224817
 30
0.0
 40
1.0
100
AcDbArc
 50
90.0
 51
167.471192
  0
LINE
  5
71C9
330
1E
100
AcDbEntity
  8
OUTLINE
100
AcDbLine
 10
193.9734619379153
 20
400.5454778224817
 30
0.0
 11
191.4734619379153
 21
402.0454778224817
 31
0.0
  0
LINE
  5
71CA
330
1E
100
AcDbEntity
  8
OUTLINE
100
AcDbLine
 10
196.9734619379153
 20
400.5454778224817
 30
0.0
 11
199.4734619379153
 21
402.0454778224817
 31
0.0
  0
LINE
  5
71CB
330
1E
100
AcDbEntity
  8
OUTLINE
100
AcDbLine
 10
194.4734619379153
 20
411.0454778224819
 30
0.0
 11
194.4734619379153
 21
425.0454778224817
 31
0.0
  0
ARC
  5
71CC
330
1E
100
AcDbEntity
  8
OUTLINE
100
AcDbCircle
 10
188.8734619379154
 20
359.3454778224817
 30
0.0
 40
0.4
100
AcDbArc
 50
90.0
 51
180.0
  0
ARC
  5
71CD
330
1E
100
AcDbEntity
  8
OUTLINE
100
AcDbCircle
 10
198.2234619379153
 20
420.0454778224819
 30
0.0
 40
6.25
100
AcDbArc
 50
53.13010200000001
 51
126.869898
  0
ARC
  5
71CE
330
1E
100
AcDbEntity
  8
OUTLINE
100
AcDbCircle
 10
205.7234619379153
 20
430.0454778224817
 30
0.0
 40
6.25
100
AcDbArc
 50
233.130102
 51
306.8698979999998
  0
ARC
  5
71CF
330
1E
100
AcDbEntity
  8
OUTLINE
100
AcDbCircle
 10
198.2234619379153
 20
430.0454778224817
 30
0.0
 40
6.25
100
AcDbArc
 50
233.130102
 51
306.8698979999998
  0
LINE
  5
71D0
330
1E
100
AcDbEntity
  8
OUTLINE
100
AcDbLine
 10
216.4734619379153
 20
382.5454778224819
 30
0.0
 11
216.4734619379153
 21
387.5454778224817
 31
0.0
  0
LINE
  5
71D1
330
1E
100
AcDbEntity
  8
OUTLINE
100
AcDbLine
 10
213.0734619379154
 20
388.5454778224817
 30
0.0
 11
214.9734619379153
 21
387.5454778224817
 31
0.0
  0
LINE
  5
71D2
330
1E
100
AcDbEntity
  8
OUTLINE
100
AcDbLine
 10
213.0734619379154
 20
388.5454778224817
 30
0.0
 11
208.4734619379153
 21
387.5454778224817
 31
0.0
  0
LINE
  5
71D3
330
1E
100
AcDbEntity
  8
OUTLINE
100
AcDbLine
 10
203.4734619379153
 20
387.5454778224817
 30
0.0
 11
208.4734619379153
 21
387.5454778224817
 31
0.0
  0
LINE
  5
71D4
330
1E
100
AcDbEntity
  8
OUTLINE
100
AcDbLine
 10
203.4734619379153
 20
387.5454778224817
 30
0.0
 11
201.9734619379152
 21
388.5454778224817
 31
0.0
  0
LINE
  5
71D5
330
1E
100
AcDbEntity
  8
OUTLINE
100
AcDbLine
 10
203.4734619379153
 20
382.5454778224819
 30
0.0
 11
203.4734619379153
 21
387.5454778224817
 31
0.0
  0
LINE
  5
71D6
330
1E
100
AcDbEntity
  8
OUTLINE
100
AcDbLine
 10
208.4734619379153
 20
382.5454778224819
 30
0.0
 11
208.4734619379153
 21
387.5454778224817
 31
0.0
  0
LINE
  5
71D7
330
1E
100
AcDbEntity
  8
OUTLINE
100
AcDbLine
 10
214.9734619379153
 20
382.5454778224819
 30
0.0
 11
214.9734619379153
 21
387.5454778224817
 31
0.0
  0
LINE
  5
71D8
330
1E
100
AcDbEntity
  8
OUTLINE
100
AcDbLine
 10
213.0734619379154
 20
381.5454778224817
 30
0.0
 11
214.9734619379153
 21
382.5454778224819
 31
0.0
  0
LINE
  5
71D9
330
1E
100
AcDbEntity
  8
OUTLINE
100
AcDbLine
 10
213.0734619379154
 20
381.5454778224817
 30
0.0
 11
208.4734619379153
 21
382.5454778224819
 31
0.0
  0
LINE
  5
71DA
330
1E
100
AcDbEntity
  8
OUTLINE
100
AcDbLine
 10
203.4734619379153
 20
382.5454778224819
 30
0.0
 11
208.4734619379153
 21
382.5454778224819
 31
0.0
  0
LINE
  5
71DB
330
1E
100
AcDbEntity
  8
OUTLINE
100
AcDbLine
 10
203.4734619379153
 20
382.5454778224819
 30
0.0
 11
201.9734619379152
 21
381.5454778224817
 31
0.0
  0
ARC
  5
71DC
330
1E
100
AcDbEntity
  8
OUTLINE
100
AcDbCircle
 10
214.5734619379154
 20
381.1454778224817
 30
0.0
 40
0.4
100
AcDbArc
 50
0.0
 51
90.0
  0
ARC
  5
71DD
330
1E
100
AcDbEntity
  8
OUTLINE
100
AcDbCircle
 10
214.5734619379154
 20
379.9454778224817
 30
0.0
 40
0.4
100
AcDbArc
 50
270.0
 51
0.0
  0
LINE
  5
71DE
330
1E
100
AcDbEntity
  8
OUTLINE
100
AcDbLine
 10
214.9734619379153
 20
379.9454778224817
 30
0.0
 11
214.9734619379153
 21
381.1454778224817
 31
0.0
  0
LINE
  5
71DF
330
1E
100
AcDbEntity
  8
OUTLINE
100
AcDbLine
 10
213.9734619379153
 20
379.2454778224817
 30
0.0
 11
213.9734619379153
 21
379.5454778224817
 31
0.0
  0
ARC
  5
71E0
330
1E
100
AcDbEntity
  8
OUTLINE
100
AcDbCircle
 10
214.5734619379154
 20
378.8454778224819
 30
0.0
 40
0.4
100
AcDbArc
 50
0.0
 51
90.0
  0
LINE
  5
71E1
330
1E
100
AcDbEntity
  8
OUTLINE
100
AcDbLine
 10
214.9734619379153
 20
372.6454778224817
 30
0.0
 11
214.9734619379153
 21
378.8454778224819
 31
0.0
  0
ARC
  5
71E2
330
1E
100
AcDbEntity
  8
OUTLINE
100
AcDbCircle
 10
214.5734619379154
 20
372.6454778224817
 30
0.0
 40
0.4
100
AcDbArc
 50
270.0
 51
0.0
  0
LINE
  5
71E3
330
1E
100
AcDbEntity
  8
OUTLINE
100
AcDbLine
 10
213.9734619379153
 20
369.7454778224817
 30
0.0
 11
213.9734619379153
 21
372.2454778224817
 31
0.0
  0
LINE
  5
71E4
330
1E
100
AcDbEntity
  8
OUTLINE
100
AcDbLine
 10
216.2734619379152
 20
365.2454778224817
 30
0.0
 11
216.2734619379152
 21
369.2454778224819
 31
0.0
  0
LINE
  5
71E5
330
1E
100
AcDbEntity
  8
OUTLINE
100
AcDbLine
 10
215.4734619379153
 20
365.2454778224817
 30
0.0
 11
216.2734619379152
 21
365.2454778224817
 31
0.0
  0
LINE
  5
71E6
330
1E
100
AcDbEntity
  8
OUTLINE
100
AcDbLine
 10
215.4734619379153
 20
369.2454778224819
 30
0.0
 11
216.2734619379152
 21
369.2454778224819
 31
0.0
  0
LINE
  5
71E7
330
1E
100
AcDbEntity
  8
OUTLINE
100
AcDbLine
 10
212.4734619379153
 20
359.7454778224817
 30
0.0
 11
212.4734619379153
 21
364.7454778224817
 31
0.0
  0
ARC
  5
71E8
330
1E
100
AcDbEntity
  8
OUTLINE
100
AcDbCircle
 10
215.0734619379154
 20
369.3454778224817
 30
0.0
 40
0.4
100
AcDbArc
 50
0.0
 51
90.0
  0
ARC
  5
71E9
330
1E
100
AcDbEntity
  8
OUTLINE
100
AcDbCircle
 10
215.0734619379154
 20
365.1454778224817
 30
0.0
 40
0.4
100
AcDbArc
 50
270.0
 51
0.0
  0
LINE
  5
71EA
330
1E
100
AcDbEntity
  8
OUTLINE
100
AcDbLine
 10
215.4734619379153
 20
365.1454778224817
 30
0.0
 11
215.4734619379153
 21
369.3454778224817
 31
0.0
  0
LINE
  5
71EB
330
1E
100
AcDbEntity
  8
OUTLINE
100
AcDbLine
 10
214.5734619379154
 20
381.5454778224817
 30
0.0
 11
216.4734619379153
 21
382.5454778224819
 31
0.0
  0
LINE
  5
71EC
330
1E
100
AcDbEntity
  8
OUTLINE
100
AcDbLine
 10
214.9734619379153
 20
382.5454778224819
 30
0.0
 11
216.4734619379153
 21
382.5454778224819
 31
0.0
  0
LINE
  5
71ED
330
1E
100
AcDbEntity
  8
OUTLINE
100
AcDbLine
 10
214.9734619379153
 20
387.5454778224817
 30
0.0
 11
216.4734619379153
 21
387.5454778224817
 31
0.0
  0
LINE
  5
71EE
330
1E
100
AcDbEntity
  8
OUTLINE
100
AcDbLine
 10
206.9734619379153
 20
400.5454778224817
 30
0.0
 11
204.4734619379153
 21
402.0454778224817
 31
0.0
  0
LINE
  5
71EF
330
1E
100
AcDbEntity
  8
OUTLINE
100
AcDbLine
 10
209.9734619379153
 20
400.5454778224817
 30
0.0
 11
206.9734619379153
 21
400.5454778224817
 31
0.0
  0
LINE
  5
71F0
330
1E
100
AcDbEntity
  8
OUTLINE
100
AcDbLine
 10
209.9734619379153
 20
400.5454778224817
 30
0.0
 11
212.4734619379153
 21
402.0454778224817
 31
0.0
  0
LINE
  5
71F1
330
1E
100
AcDbEntity
  8
OUTLINE
100
AcDbLine
 10
206.9734619379153
 20
390.5454778224819
 30
0.0
 11
206.9734619379153
 21
400.5454778224817
 31
0.0
  0
LINE
  5
71F2
330
1E
100
AcDbEntity
  8
OUTLINE
100
AcDbLine
 10
201.9734619379152
 20
390.5454778224819
 30
0.0
 11
206.9734619379153
 21
390.5454778224819
 31
0.0
  0
LINE
  5
71F3
330
1E
100
AcDbEntity
  8
OUTLINE
100
AcDbLine
 10
209.9734619379153
 20
390.5454778224819
 30
0.0
 11
214.9734619379153
 21
390.5454778224819
 31
0.0
  0
LINE
  5
71F4
330
1E
100
AcDbEntity
  8
OUTLINE
100
AcDbLine
 10
209.9734619379153
 20
390.5454778224819
 30
0.0
 11
209.9734619379153
 21
400.5454778224817
 31
0.0
  0
LINE
  5
71F5
330
1E
100
AcDbEntity
  8
OUTLINE
100
AcDbLine
 10
209.4734619379153
 20
411.0454778224819
 30
0.0
 11
209.4734619379153
 21
425.0454778224817
 31
0.0
  0
LINE
  5
71F6
330
1E
100
AcDbEntity
  8
OUTLINE
100
AcDbLine
 10
351.1234619379154
 20
397.5454778224817
 30
0.0
 11
351.1234619379154
 21
382.0454778224819
 31
0.0
  0
LINE
  5
71F7
330
1E
100
AcDbEntity
  8
OUTLINE
100
AcDbLine
 10
351.6234619379154
 20
410.0454778224817
 30
0.0
 11
351.6234619379154
 21
397.5454778224817
 31
0.0
  0
ARC
  5
71F8
330
1E
100
AcDbEntity
  8
OUTLINE
100
AcDbCircle
 10
351.6234619379154
 20
411.0454778224819
 30
0.0
 40
1.0
100
AcDbArc
 50
270.0
 51
0.0
  0
LINE
  5
71F9
330
1E
100
AcDbEntity
  8
OUTLINE
100
AcDbLine
 10
352.6234619379154
 20
417.0454778224817
 30
0.0
 11
352.6234619379154
 21
411.0454778224819
 31
0.0
  0
ARC
  5
71FA
330
1E
100
AcDbEntity
  8
OUTLINE
100
AcDbCircle
 10
351.6234619379154
 20
417.0454778224817
 30
0.0
 40
1.0
100
AcDbArc
 50
0.0
 51
90.0
  0
LINE
  5
71FB
330
1E
100
AcDbEntity
  8
OUTLINE
100
AcDbLine
 10
351.1234619379154
 20
419.0454778224817
 30
0.0
 11
351.1234619379154
 21
418.0454778224818
 31
0.0
  0
ARC
  5
71FC
330
1E
100
AcDbEntity
  8
OUTLINE
100
AcDbCircle
 10
343.6234619379153
 20
425.5454778224817
 30
0.0
 40
6.5
100
AcDbArc
 50
270.0
 51
90.0
  0
LINE
  5
71FD
330
1E
100
AcDbEntity
  8
OUTLINE
100
AcDbLine
 10
354.1234619379153
 20
432.0454778224819
 30
0.0
 11
353.3580949379154
 21
431.5506948224818
 31
0.0
  0
LINE
  5
71FE
330
1E
100
AcDbEntity
  8
OUTLINE
100
AcDbLine
 10
353.3580949379154
 20
431.5506948224818
 30
0.0
 11
352.7092489379153
 21
430.1416718224818
 31
0.0
  0
LINE
  5
71FF
330
1E
100
AcDbEntity
  8
OUTLINE
100
AcDbLine
 10
352.7092489379153
 20
430.1416718224818
 30
0.0
 11
352.2757029379154
 21
428.0329198224817
 31
0.0
  0
LINE
  5
7200
330
1E
100
AcDbEntity
  8
OUTLINE
100
AcDbLine
 10
352.2757029379154
 20
428.0329198224817
 30
0.0
 11
352.1234619379153
 21
425.5454778224817
 31
0.0
  0
LINE
  5
7201
330
1E
100
AcDbEntity
  8
OUTLINE
100
AcDbLine
 10
352.1234619379153
 20
425.5454778224817
 30
0.0
 11
352.2757029379154
 21
423.0580358224819
 31
0.0
  0
LINE
  5
7202
330
1E
100
AcDbEntity
  8
OUTLINE
100
AcDbLine
 10
352.2757029379154
 20
423.0580358224819
 30
0.0
 11
352.7092489379153
 21
420.9492838224817
 31
0.0
  0
LINE
  5
7203
330
1E
100
AcDbEntity
  8
OUTLINE
100
AcDbLine
 10
352.7092489379153
 20
420.9492838224817
 30
0.0
 11
353.3580949379154
 21
419.5402608224817
 31
0.0
  0
LINE
  5
7204
330
1E
100
AcDbEntity
  8
OUTLINE
100
AcDbLine
 10
353.3580949379154
 20
419.5402608224817
 30
0.0
 11
354.1234619379153
 21
419.0454778224817
 31
0.0
  0
LINE
  5
7205
330
1E
100
AcDbEntity
  8
OUTLINE
100
AcDbLine
 10
104.1234619379154
 20
432.0454778224819
 30
0.0
 11
83.12346193791563
 21
432.0454778224819
 31
0.0
  0
LINE
  5
7206
330
1E
100
AcDbEntity
  8
OUTLINE
100
AcDbLine
 10
86.12346193791541
 20
397.5454778224817
 30
0.0
 11
86.12346193791541
 21
382.0454778224819
 31
0.0
  0
LINE
  5
7207
330
1E
100
AcDbEntity
  8
OUTLINE
100
AcDbLine
 10
84.62346193791587
 20
417.0454778224817
 30
0.0
 11
84.62346193791587
 21
411.0454778224819
 31
0.0
  0
LINE
  5
7208
330
1E
100
AcDbEntity
  8
OUTLINE
100
AcDbLine
 10
86.12346193791541
 20
419.0454778224817
 30
0.0
 11
86.12346193791541
 21
418.0454778224818
 31
0.0
  0
ARC
  5
7209
330
1E
100
AcDbEntity
  8
OUTLINE
100
AcDbCircle
 10
85.62346193791563
 20
411.0454778224819
 30
0.0
 40
1.0
100
AcDbArc
 50
180.0
 51
270.0
  0
ARC
  5
720A
330
1E
100
AcDbEntity
  8
OUTLINE
100
AcDbCircle
 10
85.62346193791563
 20
417.0454778224817
 30
0.0
 40
1.0
100
AcDbArc
 50
90.0
 51
180.0
  0
LINE
  5
720B
330
1E
100
AcDbEntity
  8
OUTLINE
100
AcDbLine
 10
85.62346193791563
 20
410.0454778224817
 30
0.0
 11
85.62346193791563
 21
397.5454778224817
 31
0.0
  0
LINE
  5
720C
330
1E
100
AcDbEntity
  8
OUTLINE
100
AcDbLine
 10
104.1234619379154
 20
419.0454778224817
 30
0.0
 11
83.12346193791563
 21
419.0454778224817
 31
0.0
  0
LINE
  5
720D
330
1E
100
AcDbEntity
  8
OUTLINE
100
AcDbLine
 10
101.6234619379158
 20
418.0454778224818
 30
0.0
 11
85.62346193791563
 21
418.0454778224818
 31
0.0
  0
LINE
  5
720E
330
1E
100
AcDbEntity
  8
OUTLINE
100
AcDbLine
 10
101.6234619379158
 20
410.0454778224817
 30
0.0
 11
85.62346193791563
 21
410.0454778224817
 31
0.0
  0
LINE
  5
720F
330
1E
100
AcDbEntity
  8
OUTLINE
100
AcDbLine
 10
101.6234619379158
 20
397.5454778224817
 30
0.0
 11
85.62346193791563
 21
397.5454778224817
 31
0.0
  0
ARC
  5
7210
330
1E
100
AcDbEntity
  8
OUTLINE
100
AcDbCircle
 10
93.62346193791564
 20
425.5454778224817
 30
0.0
 40
6.5
100
AcDbArc
 50
90.0
 51
270.0
  0
LINE
  5
7211
330
1E
100
AcDbEntity
  8
OUTLINE
100
AcDbLine
 10
104.1234619379154
 20
432.0454778224819
 30
0.0
 11
104.8888289379153
 21
431.5506948224818
 31
0.0
  0
LINE
  5
7212
330
1E
100
AcDbEntity
  8
OUTLINE
100
AcDbLine
 10
104.8888289379153
 20
431.5506948224818
 30
0.0
 11
105.5376759379156
 21
430.1416718224818
 31
0.0
  0
LINE
  5
7213
330
1E
100
AcDbEntity
  8
OUTLINE
100
AcDbLine
 10
105.5376759379156
 20
430.1416718224818
 30
0.0
 11
105.9712209379154
 21
428.0329198224817
 31
0.0
  0
LINE
  5
7214
330
1E
100
AcDbEntity
  8
OUTLINE
100
AcDbLine
 10
105.9712209379154
 20
428.0329198224817
 30
0.0
 11
106.1234619379156
 21
425.5454778224817
 31
0.0
  0
LINE
  5
7215
330
1E
100
AcDbEntity
  8
OUTLINE
100
AcDbLine
 10
106.1234619379156
 20
425.5454778224817
 30
0.0
 11
105.9712209379154
 21
423.0580358224819
 31
0.0
  0
LINE
  5
7216
330
1E
100
AcDbEntity
  8
OUTLINE
100
AcDbLine
 10
105.9712209379154
 20
423.0580358224819
 30
0.0
 11
105.5376759379156
 21
420.9492838224817
 31
0.0
  0
LINE
  5
7217
330
1E
100
AcDbEntity
  8
OUTLINE
100
AcDbLine
 10
105.5376759379156
 20
420.9492838224817
 30
0.0
 11
104.8888289379153
 21
419.5402608224817
 31
0.0
  0
LINE
  5
7218
330
1E
100
AcDbEntity
  8
OUTLINE
100
AcDbLine
 10
104.8888289379153
 20
419.5402608224817
 30
0.0
 11
104.1234619379154
 21
419.0454778224817
 31
0.0
  0
LINE
  5
7219
330
1E
100
AcDbEntity
  8
OUTLINE
100
AcDbLine
 10
83.12346193791563
 20
432.0454778224819
 30
0.0
 11
83.88882893791572
 21
431.5506948224818
 31
0.0
  0
LINE
  5
721A
330
1E
100
AcDbEntity
  8
OUTLINE
100
AcDbLine
 10
83.88882893791572
 20
431.5506948224818
 30
0.0
 11
84.5376759379153
 21
430.1416718224818
 31
0.0
  0
LINE
  5
721B
330
1E
100
AcDbEntity
  8
OUTLINE
100
AcDbLine
 10
84.5376759379153
 20
430.1416718224818
 30
0.0
 11
84.9712209379154
 21
428.0329198224817
 31
0.0
  0
LINE
  5
721C
330
1E
100
AcDbEntity
  8
OUTLINE
100
AcDbLine
 10
84.9712209379154
 20
428.0329198224817
 30
0.0
 11
85.12346193791563
 21
425.5454778224817
 31
0.0
  0
LINE
  5
721D
330
1E
100
AcDbEntity
  8
OUTLINE
100
AcDbLine
 10
85.12346193791563
 20
425.5454778224817
 30
0.0
 11
84.9712209379154
 21
423.0580358224819
 31
0.0
  0
LINE
  5
721E
330
1E
100
AcDbEntity
  8
OUTLINE
100
AcDbLine
 10
84.9712209379154
 20
423.0580358224819
 30
0.0
 11
84.5376759379153
 21
420.9492838224817
 31
0.0
  0
LINE
  5
721F
330
1E
100
AcDbEntity
  8
OUTLINE
100
AcDbLine
 10
84.5376759379153
 20
420.9492838224817
 30
0.0
 11
83.88882893791572
 21
419.5402608224817
 31
0.0
  0
LINE
  5
7220
330
1E
100
AcDbEntity
  8
OUTLINE
100
AcDbLine
 10
83.88882893791572
 20
419.5402608224817
 30
0.0
 11
83.12346193791563
 21
419.0454778224817
 31
0.0
  0
LINE
  5
7221
330
1E
100
AcDbEntity
  8
OUTLINE
100
AcDbLine
 10
83.12346193791563
 20
419.0454778224817
 30
0.0
 11
82.35809493791567
 21
419.5402608224817
 31
0.0
  0
LINE
  5
7222
330
1E
100
AcDbEntity
  8
OUTLINE
100
AcDbLine
 10
82.35809493791567
 20
419.5402608224817
 30
0.0
 11
81.70924893791562
 21
420.9492838224817
 31
0.0
  0
LINE
  5
7223
330
1E
100
AcDbEntity
  8
OUTLINE
100
AcDbLine
 10
81.70924893791562
 20
420.9492838224817
 30
0.0
 11
81.2757029379154
 21
423.0580358224819
 31
0.0
  0
LINE
  5
7224
330
1E
100
AcDbEntity
  8
OUTLINE
100
AcDbLine
 10
81.2757029379154
 20
423.0580358224819
 30
0.0
 11
81.12346193791564
 21
425.5454778224817
 31
0.0
  0
LINE
  5
7225
330
1E
100
AcDbEntity
  8
OUTLINE
100
AcDbLine
 10
81.12346193791564
 20
425.5454778224817
 30
0.0
 11
81.2757029379154
 21
428.0329198224817
 31
0.0
  0
LINE
  5
7226
330
1E
100
AcDbEntity
  8
OUTLINE
100
AcDbLine
 10
81.2757029379154
 20
428.0329198224817
 30
0.0
 11
81.70924893791562
 21
430.1416718224818
 31
0.0
  0
LINE
  5
7227
330
1E
100
AcDbEntity
  8
OUTLINE
100
AcDbLine
 10
81.70924893791562
 20
430.1416718224818
 30
0.0
 11
82.35809493791567
 21
431.5506948224818
 31
0.0
  0
LINE
  5
7228
330
1E
100
AcDbEntity
  8
OUTLINE
100
AcDbLine
 10
82.35809493791567
 20
431.5506948224818
 30
0.0
 11
83.12346193791563
 21
432.0454778224819
 31
0.0
  0
ARC
  5
7229
330
1E
100
AcDbEntity
  8
OUTLINE
100
AcDbCircle
 10
97.37346193791564
 20
387.0454778224817
 30
0.0
 40
6.25
100
AcDbArc
 50
233.130102
 51
306.8698979999998
  0
ARC
  5
722A
330
1E
100
AcDbEntity
  8
OUTLINE
100
AcDbCircle
 10
89.87346193791541
 20
387.0454778224817
 30
0.0
 40
6.25
100
AcDbArc
 50
233.130102
 51
306.8698979999998
  0
ARC
  5
722B
330
1E
100
AcDbEntity
  8
OUTLINE
100
AcDbCircle
 10
89.87346193791541
 20
377.0454778224817
 30
0.0
 40
6.25
100
AcDbArc
 50
53.13010200000001
 51
126.869898
  0
LINE
  5
722C
330
1E
100
AcDbEntity
  8
OUTLINE
100
AcDbLine
 10
101.1234619379156
 20
397.5454778224817
 30
0.0
 11
101.1234619379156
 21
382.0454778224819
 31
0.0
  0
LINE
  5
722D
330
1E
100
AcDbEntity
  8
OUTLINE
100
AcDbLine
 10
101.6234619379158
 20
410.0454778224817
 30
0.0
 11
101.6234619379158
 21
397.5454778224817
 31
0.0
  0
ARC
  5
722E
330
1E
100
AcDbEntity
  8
OUTLINE
100
AcDbCircle
 10
101.6234619379158
 20
411.0454778224819
 30
0.0
 40
1.0
100
AcDbArc
 50
270.0
 51
0.0
  0
LINE
  5
722F
330
1E
100
AcDbEntity
  8
OUTLINE
100
AcDbLine
 10
102.6234619379156
 20
417.0454778224817
 30
0.0
 11
102.6234619379156
 21
411.0454778224819
 31
0.0
  0
ARC
  5
7230
330
1E
100
AcDbEntity
  8
OUTLINE
100
AcDbCircle
 10
101.6234619379158
 20
417.0454778224817
 30
0.0
 40
1.0
100
AcDbArc
 50
0.0
 51
90.0
  0
LINE
  5
7231
330
1E
100
AcDbEntity
  8
OUTLINE
100
AcDbLine
 10
101.1234619379156
 20
419.0454778224817
 30
0.0
 11
101.1234619379156
 21
418.0454778224818
 31
0.0
  0
ARC
  5
7232
330
1E
100
AcDbEntity
  8
OUTLINE
100
AcDbCircle
 10
93.62346193791564
 20
425.5454778224817
 30
0.0
 40
6.5
100
AcDbArc
 50
270.0
 51
90.0
  0
LINE
  5
7233
330
1E
100
AcDbEntity
  8
OUTLINE
100
AcDbLine
 10
104.1234619379154
 20
432.0454778224819
 30
0.0
 11
103.3580949379157
 21
431.5506948224818
 31
0.0
  0
LINE
  5
7234
330
1E
100
AcDbEntity
  8
OUTLINE
100
AcDbLine
 10
103.3580949379157
 20
431.5506948224818
 30
0.0
 11
102.7092489379153
 21
430.1416718224818
 31
0.0
  0
LINE
  5
7235
330
1E
100
AcDbEntity
  8
OUTLINE
100
AcDbLine
 10
102.7092489379153
 20
430.1416718224818
 30
0.0
 11
102.2757029379154
 21
428.0329198224817
 31
0.0
  0
LINE
  5
7236
330
1E
100
AcDbEntity
  8
OUTLINE
100
AcDbLine
 10
102.2757029379154
 20
428.0329198224817
 30
0.0
 11
102.1234619379156
 21
425.5454778224817
 31
0.0
  0
LINE
  5
7237
330
1E
100
AcDbEntity
  8
OUTLINE
100
AcDbLine
 10
102.1234619379156
 20
425.5454778224817
 30
0.0
 11
102.2757029379154
 21
423.0580358224819
 31
0.0
  0
LINE
  5
7238
330
1E
100
AcDbEntity
  8
OUTLINE
100
AcDbLine
 10
102.2757029379154
 20
423.0580358224819
 30
0.0
 11
102.7092489379153
 21
420.9492838224817
 31
0.0
  0
LINE
  5
7239
330
1E
100
AcDbEntity
  8
OUTLINE
100
AcDbLine
 10
102.7092489379153
 20
420.9492838224817
 30
0.0
 11
103.3580949379157
 21
419.5402608224817
 31
0.0
  0
LINE
  5
723A
330
1E
100
AcDbEntity
  8
OUTLINE
100
AcDbLine
 10
103.3580949379157
 20
419.5402608224817
 30
0.0
 11
104.1234619379154
 21
419.0454778224817
 31
0.0
  0
LINE
  5
723B
330
1E
100
AcDbEntity
  8
OUTLINE
100
AcDbLine
 10
240.4334619379153
 20
340.1454778224819
 30
0.0
 11
240.4334619379153
 21
342.0454778224817
 31
0.0
  0
LINE
  5
723C
330
1E
100
AcDbEntity
  8
OUTLINE
100
AcDbLine
 10
241.2334619379153
 20
339.0454778224817
 30
0.0
 11
241.2334619379153
 21
342.0454778224817
 31
0.0
  0
LINE
  5
723D
330
1E
100
AcDbEntity
  8
OUTLINE
100
AcDbLine
 10
240.4334619379153
 20
340.1454778224819
 30
0.0
 11
241.2334619379153
 21
339.0454778224817
 31
0.0
  0
LINE
  5
723E
330
1E
100
AcDbEntity
  8
OUTLINE
100
AcDbLine
 10
230.1134619379154
 20
340.1454778224819
 30
0.0
 11
230.1134619379154
 21
342.0454778224817
 31
0.0
  0
LINE
  5
723F
330
1E
100
AcDbEntity
  8
OUTLINE
100
AcDbLine
 10
229.3134619379154
 20
339.0454778224817
 30
0.0
 11
229.3134619379154
 21
342.0454778224817
 31
0.0
  0
LINE
  5
7240
330
1E
100
AcDbEntity
  8
OUTLINE
100
AcDbLine
 10
230.1134619379154
 20
340.1454778224819
 30
0.0
 11
229.3134619379154
 21
339.0454778224817
 31
0.0
  0
LINE
  5
7241
330
1E
100
AcDbEntity
  8
OUTLINE
100
AcDbLine
 10
207.1334619379153
 20
340.1454778224819
 30
0.0
 11
207.1334619379153
 21
342.0454778224817
 31
0.0
  0
LINE
  5
7242
330
1E
100
AcDbEntity
  8
OUTLINE
100
AcDbLine
 10
207.9334619379153
 20
339.0454778224817
 30
0.0
 11
207.9334619379153
 21
342.0454778224817
 31
0.0
  0
LINE
  5
7243
330
1E
100
AcDbEntity
  8
OUTLINE
100
AcDbLine
 10
207.1334619379153
 20
340.1454778224819
 30
0.0
 11
207.9334619379153
 21
339.0454778224817
 31
0.0
  0
LINE
  5
7244
330
1E
100
AcDbEntity
  8
OUTLINE
100
AcDbLine
 10
196.8134619379154
 20
340.1454778224819
 30
0.0
 11
196.8134619379154
 21
342.0454778224817
 31
0.0
  0
LINE
  5
7245
330
1E
100
AcDbEntity
  8
OUTLINE
100
AcDbLine
 10
196.0134619379152
 20
339.0454778224817
 30
0.0
 11
196.0134619379152
 21
342.0454778224817
 31
0.0
  0
LINE
  5
7246
330
1E
100
AcDbEntity
  8
OUTLINE
100
AcDbLine
 10
196.8134619379154
 20
340.1454778224819
 30
0.0
 11
196.0134619379152
 21
339.0454778224817
 31
0.0
  0
LINE
  5
7466
330
1E
100
AcDbEntity
  8
OUTLINE
  6
PHANTOM
 62
     3
100
AcDbLine
 10
243.9734619379153
 20
323.0454778224817
 30
0.0
 11
243.9734619379153
 21
285.0454778224818
 31
0.0
  0
LINE
  5
746B
330
1E
100
AcDbEntity
  8
OUTLINE
  6
PHANTOM
 62
     3
100
AcDbLine
 10
159.4734619379153
 20
285.0454778224818
 30
0.0
 11
243.9734619379153
 21
285.0454778224818
 31
0.0
  0
LINE
  5
746C
330
1E
100
AcDbEntity
  8
OUTLINE
  6
PHANTOM
 62
     3
100
AcDbLine
 10
159.4734619379153
 20
323.0454778224817
 30
0.0
 11
159.4734619379153
 21
285.0454778224818
 31
0.0
  0
LINE
  5
746D
330
1E
100
AcDbEntity
  8
OUTLINE
  6
PHANTOM
 62
     3
100
AcDbLine
 10
243.9734619379153
 20
323.0454778224817
 30
0.0
 11
159.4734619379153
 21
323.0454778224817
 31
0.0
  0
TEXT
  5
747C
330
1E
100
AcDbEntity
  8
TEXT
100
AcDbText
 10
39.92220661070575
 20
239.4711203417127
 30
0.0
 40
8.4
  1
ラベル位置（裏側）
 41
0.9
100
AcDbText
  0
TEXT
  5
747D
330
1E
100
AcDbEntity
  8
TEXT
100
AcDbText
 10
39.99212730237264
 20
227.0465053417126
 30
0.0
 40
8.4
  1
品質表示位置（表側）
 41
0.9
100
AcDbText
  0
TEXT
  5
747E
330
1E
100
AcDbEntity
  8
TEXT
100
AcDbText
 10
117.9734647783366
 20
395.1281911559118
 30
0.0
 40
8.4
  1
ホース長 883
 50
48.41300000000001
100
AcDbText
  0
TEXT
  5
747F
330
1E
100
AcDbEntity
  8
TEXT
100
AcDbText
 10
274.2563194638312
 20
445.7150562181903
 30
0.0
 40
8.4
  1
ホース長 883
 50
311.587
100
AcDbText
  0
CIRCLE
  5
7482
330
1E
100
AcDbEntity
  8
TEXT
100
AcDbCircle
 10
99.53991093791536
 20
335.1564038224817
 30
0.0
 40
9.0
  0
TEXT
  5
7483
330
1E
100
AcDbEntity
  8
TEXT
100
AcDbText
 10
94.68276808077249
 20
329.1564038224817
 30
0.0
 40
12.0
  1
1
 72
     1
 11
99.53991093791536
 21
335.1564038224817
 31
0.0
100
AcDbText
 73
     2
  0
CIRCLE
  5
7486
330
1E
100
AcDbEntity
  8
TEXT
100
AcDbCircle
 10
149.137102614493
 20
392.0139488923097
 30
0.0
 40
9.0
  0
TEXT
  5
7488
330
1E
100
AcDbEntity
  8
TEXT
100
AcDbText
 10
143.4228169002073
 20
386.0139488923097
 30
0.0
 40
12.0
  1
2
 72
     1
 11
149.137102614493
 21
392.0139488923097
 31
0.0
100
AcDbText
 73
     2
  0
DIMENSION
  5
74A1
330
1E
100
AcDbEntity
  8
DIM
100
AcDbDimension
  2
*D1
 10
254.4734619379153
 20
180.0419148224817
 30
0.0
 11
201.9734619379152
 21
185.4419148224818
 31
0.0
 70
    32
  1
%%c<>
  3
G1
100
AcDbAlignedDimension
 13
149.4734619379153
 23
215.7282608224817
 33
0.0
 14
254.4734619379153
 24
215.7282608224817
 34
0.0
100
AcDbRotatedDimension
  0
DIMENSION
  5
74A2
330
1E
100
AcDbEntity
  8
DIM
100
AcDbDimension
  2
*D2
 10
269.4734619379153
 20
164.3005474654015
 30
0.0
 11
205.9734619379153
 21
169.7005474654015
 31
0.0
 70
    32
  1
%%C<>
  3
G1
100
AcDbAlignedDimension
 13
142.4734619379153
 23
256.0454778224818
 33
0.0
 14
269.4734619379153
 24
256.0454778224818
 34
0.0
100
AcDbRotatedDimension
  0
DIMENSION
  5
74A3
330
1E
100
AcDbEntity
  8
DIM
100
AcDbDimension
  2
*D3
 10
304.4714969379153
 20
337.0454778224817
 30
0.0
 11
299.0714969379153
 21
268.5454778224818
 31
0.0
 70
    32
  1
<>（253）
  3
G1
100
AcDbAlignedDimension
 13
254.4734619379153
 23
200.0454778224817
 33
0.0
 14
248.4734619379153
 24
337.0454778224817
 34
0.0
 50
90.0
100
AcDbRotatedDimension
  0
DIMENSION
  5
74A4
330
1E
100
AcDbEntity
  8
DIM
100
AcDbDimension
  2
*D4
 10
104.1234619379154
 20
443.0454778224818
 30
0.0
 11
93.62346193791552
 21
443.0454778224818
 31
0.0
 70
   160
  1
G1／2
  3
G1
100
AcDbAlignedDimension
 13
83.12346193791563
 23
432.0454778224819
 33
0.0
 14
104.1234619379154
 24
432.0454778224819
 34
0.0
100
AcDbRotatedDimension
  0
DIMENSION
  5
74A5
330
1E
100
AcDbEntity
  8
DIM
100
AcDbDimension
  2
*D5
 10
354.1234619379153
 20
443.0454778224818
 30
0.0
 11
343.6234619379153
 21
443.0454778224818
 31
0.0
 70
   160
  1
G1／2
  3
G1
100
AcDbAlignedDimension
 13
333.1234619379153
 23
432.0454778224819
 33
0.0
 14
354.1234619379153
 24
432.0454778224819
 34
0.0
100
AcDbRotatedDimension
  0
LINE
  5
74D5
330
1E
100
AcDbEntity
  8
OUTLINE
100
AcDbLine
 10
188.4734619379153
 20
356.2454778224817
 30
0.0
 11
188.4734619379153
 21
356.2454778224817
 31
0.0
  0
LINE
  5
74D6
330
1E
100
AcDbEntity
  8
OUTLINE
100
AcDbLine
 10
188.4734619379153
 20
356.2454778224817
 30
0.0
 11
188.3794469379153
 21
356.1613368224817
 31
0.0
  0
LINE
  5
74D7
330
1E
100
AcDbEntity
  8
OUTLINE
100
AcDbLine
 10
188.3794469379153
 20
356.1613368224817
 30
0.0
 11
188.2721599379153
 21
355.8848858224819
 31
0.0
  0
LINE
  5
74D8
330
1E
100
AcDbEntity
  8
OUTLINE
100
AcDbLine
 10
188.2721599379153
 20
355.8848858224819
 30
0.0
 11
188.1484739379153
 21
355.3707758224817
 31
0.0
  0
LINE
  5
74D9
330
1E
100
AcDbEntity
  8
OUTLINE
100
AcDbLine
 10
188.1484739379153
 20
355.3707758224817
 30
0.0
 11
187.9990679379153
 21
354.4839578224817
 31
0.0
  0
LINE
  5
74DA
330
1E
100
AcDbEntity
  8
OUTLINE
100
AcDbLine
 10
187.9990679379153
 20
354.4839578224817
 30
0.0
 11
187.7264329379144
 21
351.8113858224817
 31
0.0
  0
LINE
  5
74DB
330
1E
100
AcDbEntity
  8
OUTLINE
100
AcDbLine
 10
187.7264329379144
 20
351.8113858224817
 30
0.0
 11
187.6293799379153
 21
349.1266978224818
 31
0.0
  0
LINE
  5
74DC
330
1E
100
AcDbEntity
  8
OUTLINE
100
AcDbLine
 10
187.6293799379153
 20
349.1266978224818
 30
0.0
 11
187.6555569379153
 21
348.2277628224817
 31
0.0
  0
LINE
  5
74DD
330
1E
100
AcDbEntity
  8
OUTLINE
100
AcDbLine
 10
187.6555569379153
 20
348.2277628224817
 30
0.0
 11
187.7074529379153
 21
347.7015368224817
 31
0.0
  0
LINE
  5
74DE
330
1E
100
AcDbEntity
  8
OUTLINE
100
AcDbLine
 10
187.7074529379153
 20
347.7015368224817
 30
0.0
 11
187.7148759379154
 21
347.6556948224819
 31
0.0
  0
LINE
  5
74DF
330
1E
100
AcDbEntity
  8
OUTLINE
100
AcDbLine
 10
216.2320489379153
 20
347.6556948224819
 30
0.0
 11
216.2394709379152
 21
347.7015368224817
 31
0.0
  0
LINE
  5
74E0
330
1E
100
AcDbEntity
  8
OUTLINE
100
AcDbLine
 10
216.2394709379152
 20
347.7015368224817
 30
0.0
 11
216.2913669379154
 21
348.2277628224817
 31
0.0
  0
LINE
  5
74E1
330
1E
100
AcDbEntity
  8
OUTLINE
100
AcDbLine
 10
216.2913669379154
 20
348.2277628224817
 30
0.0
 11
216.3175439379153
 21
349.1266978224818
 31
0.0
  0
LINE
  5
74E2
330
1E
100
AcDbEntity
  8
OUTLINE
100
AcDbLine
 10
216.3175439379153
 20
349.1266978224818
 30
0.0
 11
216.2204909379154
 21
351.8113858224817
 31
0.0
  0
LINE
  5
74E3
330
1E
100
AcDbEntity
  8
OUTLINE
100
AcDbLine
 10
216.2204909379154
 20
351.8113858224817
 30
0.0
 11
215.9478559379144
 21
354.4839578224817
 31
0.0
  0
LINE
  5
74E4
330
1E
100
AcDbEntity
  8
OUTLINE
100
AcDbLine
 10
215.9478559379144
 20
354.4839578224817
 30
0.0
 11
215.7984499379153
 21
355.3707758224817
 31
0.0
  0
LINE
  5
74E5
330
1E
100
AcDbEntity
  8
OUTLINE
100
AcDbLine
 10
215.7984499379153
 20
355.3707758224817
 30
0.0
 11
215.6747639379152
 21
355.8848858224819
 31
0.0
  0
LINE
  5
74E6
330
1E
100
AcDbEntity
  8
OUTLINE
100
AcDbLine
 10
215.6747639379152
 20
355.8848858224819
 30
0.0
 11
215.5674779379153
 21
356.1613368224817
 31
0.0
  0
LINE
  5
74E7
330
1E
100
AcDbEntity
  8
OUTLINE
100
AcDbLine
 10
215.5674779379153
 20
356.1613368224817
 30
0.0
 11
215.4734619379153
 21
356.2454778224817
 31
0.0
  0
LINE
  5
74E8
330
1E
100
AcDbEntity
  8
OUTLINE
100
AcDbLine
 10
215.4734619379153
 20
356.2454778224817
 30
0.0
 11
215.4734619379153
 21
356.2454778224817
 31
0.0
  0
LINE
  5
74E9
330
1E
100
AcDbEntity
  8
OUTLINE
100
AcDbLine
 10
221.7734619379152
 20
356.2454778224817
 30
0.0
 11
221.7734619379152
 21
356.2454778224817
 31
0.0
  0
LINE
  5
74EA
330
1E
100
AcDbEntity
  8
OUTLINE
100
AcDbLine
 10
221.7734619379152
 20
356.2454778224817
 30
0.0
 11
221.6794469379153
 21
356.1613368224817
 31
0.0
  0
LINE
  5
74EB
330
1E
100
AcDbEntity
  8
OUTLINE
100
AcDbLine
 10
221.6794469379153
 20
356.1613368224817
 30
0.0
 11
221.5721599379153
 21
355.8848858224819
 31
0.0
  0
LINE
  5
74EC
330
1E
100
AcDbEntity
  8
OUTLINE
100
AcDbLine
 10
221.5721599379153
 20
355.8848858224819
 30
0.0
 11
221.4484739379154
 21
355.3707758224817
 31
0.0
  0
LINE
  5
74ED
330
1E
100
AcDbEntity
  8
OUTLINE
100
AcDbLine
 10
221.4484739379154
 20
355.3707758224817
 30
0.0
 11
221.2990679379154
 21
354.4839578224817
 31
0.0
  0
LINE
  5
74EE
330
1E
100
AcDbEntity
  8
OUTLINE
100
AcDbLine
 10
221.2990679379154
 20
354.4839578224817
 30
0.0
 11
221.0264329379153
 21
351.8113858224817
 31
0.0
  0
LINE
  5
74EF
330
1E
100
AcDbEntity
  8
OUTLINE
100
AcDbLine
 10
221.0264329379153
 20
351.8113858224817
 30
0.0
 11
220.9293799379154
 21
349.1266978224818
 31
0.0
  0
LINE
  5
74F0
330
1E
100
AcDbEntity
  8
OUTLINE
100
AcDbLine
 10
220.9293799379154
 20
349.1266978224818
 30
0.0
 11
220.9555569379153
 21
348.2277628224817
 31
0.0
  0
LINE
  5
74F1
330
1E
100
AcDbEntity
  8
OUTLINE
100
AcDbLine
 10
220.9555569379153
 20
348.2277628224817
 30
0.0
 11
221.0074529379153
 21
347.7015368224817
 31
0.0
  0
LINE
  5
74F2
330
1E
100
AcDbEntity
  8
OUTLINE
100
AcDbLine
 10
221.0074529379153
 20
347.7015368224817
 30
0.0
 11
221.0148759379153
 21
347.6556948224819
 31
0.0
  0
LINE
  5
74F3
330
1E
100
AcDbEntity
  8
OUTLINE
100
AcDbLine
 10
249.5320489379153
 20
347.6556948224819
 30
0.0
 11
249.5394709379154
 21
347.7015368224817
 31
0.0
  0
LINE
  5
74F4
330
1E
100
AcDbEntity
  8
OUTLINE
100
AcDbLine
 10
249.5394709379154
 20
347.7015368224817
 30
0.0
 11
249.5913669379153
 21
348.2277628224817
 31
0.0
  0
LINE
  5
74F5
330
1E
100
AcDbEntity
  8
OUTLINE
100
AcDbLine
 10
249.5913669379153
 20
348.2277628224817
 30
0.0
 11
249.6175439379144
 21
349.1266978224818
 31
0.0
  0
LINE
  5
74F6
330
1E
100
AcDbEntity
  8
OUTLINE
100
AcDbLine
 10
249.6175439379144
 20
349.1266978224818
 30
0.0
 11
249.5204909379153
 21
351.8113858224817
 31
0.0
  0
LINE
  5
74F7
330
1E
100
AcDbEntity
  8
OUTLINE
100
AcDbLine
 10
249.5204909379153
 20
351.8113858224817
 30
0.0
 11
249.2478559379153
 21
354.4839578224817
 31
0.0
  0
LINE
  5
74F8
330
1E
100
AcDbEntity
  8
OUTLINE
100
AcDbLine
 10
249.2478559379153
 20
354.4839578224817
 30
0.0
 11
249.0984499379153
 21
355.3707758224817
 31
0.0
  0
LINE
  5
74F9
330
1E
100
AcDbEntity
  8
OUTLINE
100
AcDbLine
 10
249.0984499379153
 20
355.3707758224817
 30
0.0
 11
248.9747639379154
 21
355.8848858224819
 31
0.0
  0
LINE
  5
74FA
330
1E
100
AcDbEntity
  8
OUTLINE
100
AcDbLine
 10
248.9747639379154
 20
355.8848858224819
 30
0.0
 11
248.8674779379152
 21
356.1613368224817
 31
0.0
  0
LINE
  5
74FB
330
1E
100
AcDbEntity
  8
OUTLINE
100
AcDbLine
 10
248.8674779379152
 20
356.1613368224817
 30
0.0
 11
248.7734619379152
 21
356.2454778224817
 31
0.0
  0
LINE
  5
74FC
330
1E
100
AcDbEntity
  8
OUTLINE
100
AcDbLine
 10
248.7734619379152
 20
356.2454778224817
 30
0.0
 11
248.7734619379152
 21
356.2454778224817
 31
0.0
  0
LEADER
  5
7500
330
1E
100
AcDbEntity
  8
TEXT
100
AcDbLeader
  3
G1
 76
     3
 10
169.4699829379153
 20
295.0371598224817
 30
0.0
 10
129.1620495134396
 20
237.7512323417125
 30
0.0
 10
38.43704189587276
 20
237.7512323417125
 30
0.0
1001
ACAD
1000
DSTYLE
1002
{
1070
     5
1000
OPEN
1070
    77
1070
     0
1070
   147
1040
0.5
1070
   342
1005
8E2
1002
}
  0
LEADER
  5
7501
330
1E
100
AcDbEntity
  8
TEXT
100
AcDbLeader
  3
G1
 76
     2
 10
149.5476019379153
 20
284.2223658224817
 30
0.0
 10
105.3481314977181
 20
328.2814802644569
 30
0.0
1001
ACAD
1000
DSTYLE
1002
{
1070
     5
1000
OPEN
1070
    77
1070
     0
1070
   147
1040
0.5
1070
   342
1005
8E2
1002
}
  0
LEADER
  5
7502
330
1E
100
AcDbEntity
  8
TEXT
100
AcDbLeader
  3
G1
 76
     2
 10
227.8532959379154
 20
416.9227968224817
 30
0.0
 10
157.2489021655594
 20
395.9125009367646
 30
0.0
1001
ACAD
1000
DSTYLE
1002
{
1070
     5
1000
OPEN
1070
    77
1070
     0
1070
   147
1040
0.5
1070
   342
1005
8E2
1002
}
  0
LEADER
  5
7503
330
1E
100
AcDbEntity
  8
TEXT
100
AcDbLeader
  3
G1
 76
     2
 10
194.4734619379153
 20
418.0454778224818
 30
0.0
 10
157.2489021655594
 20
395.9125009367646
 30
0.0
1001
ACAD
1000
DSTYLE
1002
{
1070
     5
1000
OPEN
1070
    77
1070
     0
1070
   147
1040
0.5
1070
   342
1005
8E2
1002
}
  0
TEXT
  5
7D30
330
1E
100
AcDbEntity
  8
WAKU
100
AcDbText
 10
139.4512693160226
 20
25.0
 30
0.0
 40
8.0
  1
縮尺　１：２
100
AcDbText
  0
TEXT
  5
7D3F
330
1E
100
AcDbEntity
  8
TEXT
100
AcDbText
 10
44.06327678566912
 20
476.5242640725055
 30
0.0
 40
8.4
  1
浄水器より（戻り）
100
AcDbText
  0
TEXT
  5
7D40
330
1E
100
AcDbEntity
  8
TEXT
100
AcDbText
 10
302.8036634084035
 20
476.0438560725059
 30
0.0
 40
8.4
  1
浄水器へ（行き）
100
AcDbText
  0
LINE
  5
7D59
330
1E
100
AcDbEntity
  8
CENTER
100
AcDbLine
 10
93.62346193791564
 20
365.0454778224817
 30
0.0
 11
93.62346193791575
 21
439.8681781675354
 31
0.0
  0
LWPOLYLINE
  5
92B9
330
1E
100
AcDbEntity
  8
0
  6
CONTINUOUS
100
AcDbPolyline
 90
        4
 70
     1
 43
0.0
 10
20.0
 20
20.0
 10
400.0
 20
20.0
 10
400.0
 20
574.0
 10
19.99999999999994
 20
574.0
  0
ENDSEC
  0
SECTION
  2
OBJECTS
  0
DICTIONARY
  5
C
330
0
100
AcDbDictionary
  3
ACAD_COLOR
350
20BB
  3
ACAD_GROUP
350
D
  3
ACAD_LAYOUT
350
19
  3
ACAD_MATERIAL
350
20BA
  3
ACAD_MLINESTYLE
350
16
  3
ACAD_PLOTSETTINGS
350
18
  3
ACAD_PLOTSTYLENAME
350
E
  3
ACAD_TABLESTYLE
350
20BC
  3
ACADDIM
350
1364
  3
ACDBVARIABLEDICTIONARY
350
F2D
  3
ACDBHEADERROUNDTRIPXREC
350
9412
  0
DICTIONARY
  5
211C
330
1E
100
AcDbDictionary
280
     1
  3
ACAD_LAYOUTSELFREF
360
9434
  3
ACAD_SORTENTS
360
211D
  0
DICTIONARY
  5
213F
330
1A
100
AcDbDictionary
280
     1
  3
ACAD_LAYOUTSELFREF
360
9433
  0
DICTIONARY
  5
20BB
102
{ACAD_REACTORS
330
C
102
}
330
C
100
AcDbDictionary
  0
DICTIONARY
  5
D
102
{ACAD_REACTORS
330
C
102
}
330
C
100
AcDbDictionary
  0
DICTIONARY
  5
19
102
{ACAD_REACTORS
330
C
102
}
330
C
100
AcDbDictionary
  0
DICTIONARY
  5
20BA
102
{ACAD_REACTORS
330
C
102
}
330
C
100
AcDbDictionary
  0
DICTIONARY
  5
16
102
{ACAD_REACTORS
330
C
102
}
330
C
100
AcDbDictionary
  3
STANDARD
350
17
  0
DICTIONARY
  5
18
102
{ACAD_REACTORS
330
C
102
}
330
C
100
AcDbDictionary
  0
ACDBDICTIONARYWDFLT
  5
E
102
{ACAD_REACTORS
330
C
102
}
330
C
100
AcDbDictionary
281
     1
  3
Normal
350
F
100
AcDbDictionaryWithDefault
340
F
1001
ACAD
1000
TREAT_AS_HARD
1070
     0
  0
DICTIONARY
  5
20BC
102
{ACAD_REACTORS
330
C
102
}
330
C
100
AcDbDictionary
  3
STANDARD
350
20BD
  0
XRECORD
  5
1364
102
{ACAD_REACTORS
330
C
102
}
330
C
100
AcDbXrecord
 90
   990106
  3

 60
     0
 61
     0
 62
     1
 63
     3
 64
     0
 65
     0
 66
     0
 67
     3
 68
     1
 69
     0
 70
     0
 71
     0
 72
     0
 40
0.0
170
     0
  0
DICTIONARY
  5
F2D
102
{ACAD_REACTORS
330
C
102
}
330
C
100
AcDbDictionary
  3
CTABLESTYLE
350
20D0
  3
DIMASSOC
350
20D1
  3
PROJECTNAME
350
20D2
  3
SORTENTS
350
F2E
  0
DICTIONARY
  5
9412
102
{ACAD_REACTORS
330
C
102
}
330
C
100
AcDbDictionary
  3
TSTACKALIGN
350
9413
  3
TSTACKSIZE
350
9414
  3
HYPERLINKBASE
350
9415
  3
STYLESHEET
350
9416
  3
LAYOUTDICT
350
9417
  3
PLOTSETDICT
350
9418
  3
PLOTSTYLNAMDICT
350
9419
  3
LWETCUNION
350
941A
  3
INSUNITS
350
941B
  3
CEPSNTYPE
350
941C
  3
FINGERPRINTGUID
350
941D
  3
VERSIONGUID
350
941E
  3
PSVPSCALE
350
941F
  3
DIMSTYLEDATA
350
9420
  3
PUCSORTHOREF
350
9421
  3
PUCSORTHOVIEW
350
9422
  3
PUCSBASE
350
9423
  3
PUCSORGTOP
350
9424
  3
PUCSORGBOTTOM
350
9425
  3
PUCSORGLEFT
350
9426
  3
PUCSORGRIGHT
350
9427
  3
PUCSORGFRONT
350
9428
  3
PUCSORGBACK
350
9429
  3
UCSORTHOREF
350
942A
  3
UCSORTHOVIEW
350
942B
  3
UCSBASE
350
942C
  3
UCSORGTOP
350
942D
  3
UCSORGBOTTOM
350
942E
  3
UCSORGLEFT
350
942F
  3
UCSORGRIGHT
350
9430
  3
UCSORGFRONT
350
9431
  3
UCSORGBACK
350
9432
  0
XRECORD
  5
9434
102
{ACAD_REACTORS
330
211C
102
}
330
211C
100
AcDbXrecord
340
1E
  0
SORTENTSTABLE
  5
211D
102
{ACAD_REACTORS
330
211C
102
}
330
211C
100
AcDbSortentsTable
330
1E
331
7130
  5
7130
331
71FC
  5
71FC
331
70E7
  5
70E7
331
79A
  5
7A5
331
70A6
  5
70A6
331
71BB
  5
71BB
331
74DF
  5
74DF
331
7172
  5
7172
331
70F6
  5
70F6
331
70B5
  5
70B5
331
74EE
  5
74EE
331
7181
  5
7181
331
7140
  5
7140
331
720C
  5
720C
331
714F
  5
714F
331
747C
  5
747C
331
721B
  5
721B
331
7106
  5
7106
331
70C5
  5
70C5
331
71D2
  5
71D2
331
7191
  5
7191
331
7115
  5
7115
331
70D4
  5
70D4
331
71E1
  5
71E1
331
708B
  5
708B
331
71A0
  5
71A0
331
7157
  5
7157
331
722B
  5
722B
331
71AF
  5
71AF
331
709A
  5
709A
331
7166
  5
7166
331
723A
  5
723A
331
7125
  5
7125
331
70DC
  5
70DC
331
71F1
  5
71F1
331
71B0
  5
71B0
331
7134
  5
7134
331
7200
  5
7200
331
70EB
  5
70EB
331
79E
  5
7AC
331
71BF
  5
71BF
331
70AA
  5
70AA
331
7176
  5
7176
331
74E3
  5
74E3
331
7242
  5
7242
331
70B9
  5
70B9
331
764
  5
76F
331
74F2
  5
74F2
331
7185
  5
7185
331
7144
  5
7144
331
70FB
  5
70FB
331
7210
  5
7210
331
710A
  5
710A
331
721F
  5
721F
331
70C9
  5
70C9
331
71D6
  5
71D6
331
774
  5
77F
331
7195
  5
7195
331
7502
  5
7502
331
71E5
  5
71E5
331
71A4
  5
71A4
331
708F
  5
708F
331
715B
  5
715B
331
722F
  5
722F
331
709E
  5
709E
331
74D7
  5
74D7
331
716A
  5
716A
331
723E
  5
723E
331
7129
  5
7129
331
71F5
  5
71F5
331
70E0
  5
70E0
331
71B4
  5
71B4
331
74D8
  5
74D8
331
7204
  5
7204
331
70EF
  5
70EF
331
71C3
  5
71C3
331
70AE
  5
70AE
331
74E7
  5
74E7
331
717A
  5
717A
331
7246
  5
7246
331
7139
  5
7139
331
70BD
  5
70BD
331
74F6
  5
74F6
331
7189
  5
7189
331
7148
  5
7148
331
746D
  5
746D
331
70FF
  5
70FF
331
7214
  5
7214
331
7BA
  5
7CB
331
71CB
  5
71CB
331
7D30
  5
7D30
331
7223
  5
7223
331
710E
  5
710E
331
70CD
  5
70CD
331
71DA
  5
71DA
331
7D3F
  5
7D3F
331
778
  5
783
331
7084
  5
7084
331
7199
  5
7199
331
7150
  5
7150
331
71A8
  5
71A8
331
7093
  5
7093
331
74A4
  5
74A4
331
715F
  5
715F
331
711E
  5
711E
331
7233
  5
7233
331
71EA
  5
71EA
331
716E
  5
716E
331
712D
  5
712D
331
71F9
  5
71F9
331
70E4
  5
70E4
331
797
  5
7A2
331
70A3
  5
70A3
331
71B8
  5
71B8
331
74DC
  5
74DC
331
70F3
  5
70F3
331
71C7
  5
71C7
331
70B2
  5
70B2
331
717E
  5
717E
331
74EB
  5
74EB
331
713D
  5
713D
331
7209
  5
7209
331
718D
  5
718D
331
714C
  5
714C
331
7218
  5
7218
331
7103
  5
7103
331
7BE
  5
7FB
331
71CF
  5
71CF
331
70C2
  5
70C2
331
74FB
  5
74FB
331
7227
  5
7227
331
7112
  5
7112
331
70D1
  5
70D1
331
71DE
  5
71DE
331
77C
  5
787
331
719D
  5
719D
331
7088
  5
7088
331
7154
  5
7154
331
78B
  5
797
331
7228
  5
7228
331
71AC
  5
71AC
331
7097
  5
7097
331
7163
  5
7163
331
7237
  5
7237
331
7122
  5
7122
331
71EE
  5
71EE
331
70D9
  5
70D9
331
7131
  5
7131
331
71FD
  5
71FD
331
70E8
  5
70E8
331
79B
  5
7A6
331
70A7
  5
70A7
331
71BC
  5
71BC
331
7173
  5
7173
331
70F7
  5
70F7
331
74E0
  5
74E0
331
70B6
  5
70B6
331
74EF
  5
74EF
331
7182
  5
7182
331
7141
  5
7141
331
7466
  5
7466
331
720D
  5
720D
331
70F8
  5
70F8
331
747D
  5
747D
331
721C
  5
721C
331
7107
  5
7107
331
70C6
  5
70C6
331
71D3
  5
71D3
331
7192
  5
7192
331
7116
  5
7116
331
70D5
  5
70D5
331
71E2
  5
71E2
331
71A1
  5
71A1
331
708C
  5
708C
331
7158
  5
7158
331
722C
  5
722C
331
709B
  5
709B
331
7167
  5
7167
331
723B
  5
723B
331
7126
  5
7126
331
71F2
  5
71F2
331
70DD
  5
70DD
331
71B1
  5
71B1
331
7135
  5
7135
331
70EC
  5
70EC
331
7201
  5
7201
331
71C0
  5
71C0
331
70AB
  5
70AB
331
74E4
  5
74E4
331
7177
  5
7177
331
70BA
  5
70BA
331
765
  5
770
331
7243
  5
7243
331
74F3
  5
74F3
331
7186
  5
7186
331
7145
  5
7145
331
7211
  5
7211
331
70FC
  5
70FC
331
71C8
  5
71C8
331
7220
  5
7220
331
710B
  5
710B
331
70CA
  5
70CA
331
71D7
  5
71D7
331
775
  5
780
331
7503
  5
7503
331
7196
  5
7196
331
7081
  5
7081
331
71E6
  5
71E6
331
784
  5
78F
331
7482
  5
7482
331
71A5
  5
71A5
331
7090
  5
7090
331
74A1
  5
74A1
331
715C
  5
715C
331
7230
  5
7230
331
709F
  5
709F
331
723F
  5
723F
331
712A
  5
712A
331
71F6
  5
71F6
331
70E1
  5
70E1
331
71B5
  5
71B5
331
70A0
  5
70A0
331
7205
  5
7205
331
70F0
  5
70F0
331
74D9
  5
74D9
331
71C4
  5
71C4
331
70AF
  5
70AF
331
752
  5
75D
331
74E8
  5
74E8
331
717B
  5
717B
331
713A
  5
713A
331
70BE
  5
70BE
331
74F7
  5
74F7
331
718A
  5
718A
331
7149
  5
7149
331
7215
  5
7215
331
7100
  5
7100
331
7BB
  5
7D1
331
71CC
  5
71CC
331
74F8
  5
74F8
331
7224
  5
7224
331
710F
  5
710F
331
779
  5
784
331
71DB
  5
71DB
331
7D40
  5
7D40
331
70CE
  5
70CE
331
719A
  5
719A
331
7085
  5
7085
331
788
  5
794
331
7486
  5
7486
331
7151
  5
7151
331
71A9
  5
71A9
331
7094
  5
7094
331
7160
  5
7160
331
74A5
  5
74A5
331
711F
  5
711F
331
7234
  5
7234
331
716F
  5
716F
331
71EB
  5
71EB
331
712E
  5
712E
331
71FA
  5
71FA
331
70E5
  5
70E5
331
70A4
  5
70A4
331
71B9
  5
71B9
331
70F4
  5
70F4
331
74DD
  5
74DD
331
7170
  5
7170
331
70B3
  5
70B3
331
74EC
  5
74EC
331
717F
  5
717F
331
713E
  5
713E
331
718E
  5
718E
331
720A
  5
720A
331
714D
  5
714D
331
7219
  5
7219
331
7104
  5
7104
331
7BF
  5
804
331
71D0
  5
71D0
331
70C3
  5
70C3
331
7113
  5
7113
331
74FC
  5
74FC
331
77D
  5
788
331
71DF
  5
71DF
331
70D2
  5
70D2
331
719E
  5
719E
331
7089
  5
7089
331
78C
  5
798
331
7155
  5
7155
331
7098
  5
7098
331
71AD
  5
71AD
331
7229
  5
7229
331
7164
  5
7164
331
7123
  5
7123
331
7238
  5
7238
331
71EF
  5
71EF
331
70DA
  5
70DA
331
7132
  5
7132
331
71FE
  5
71FE
331
70E9
  5
70E9
331
79C
  5
7A7
331
70A8
  5
70A8
331
71BD
  5
71BD
331
74E1
  5
74E1
331
7174
  5
7174
331
70B7
  5
70B7
331
7240
  5
7240
331
74F0
  5
74F0
331
7183
  5
7183
331
7142
  5
7142
331
70F9
  5
70F9
331
720E
  5
720E
331
747E
  5
747E
331
721D
  5
721D
331
7108
  5
7108
331
71D4
  5
71D4
331
70C7
  5
70C7
331
7193
  5
7193
331
7117
  5
7117
331
7500
  5
7500
331
70D6
  5
70D6
331
71E3
  5
71E3
331
71A2
  5
71A2
331
708D
  5
708D
331
7159
  5
7159
331
7118
  5
7118
331
722D
  5
722D
331
709C
  5
709C
331
7D59
  5
7F06
331
74D5
  5
74D5
331
7168
  5
7168
331
723C
  5
723C
331
7127
  5
7127
331
70DE
  5
70DE
331
71F3
  5
71F3
331
71B2
  5
71B2
331
7136
  5
7136
331
7202
  5
7202
331
70ED
  5
70ED
331
71C1
  5
71C1
331
70AC
  5
70AC
331
74E5
  5
74E5
331
7178
  5
7178
331
766
  5
771
331
7244
  5
7244
331
70BB
  5
70BB
331
74F4
  5
74F4
331
7187
  5
7187
331
7146
  5
7146
331
746B
  5
746B
331
70FD
  5
70FD
331
7212
  5
7212
331
71C9
  5
71C9
331
710C
  5
710C
331
7221
  5
7221
331
70CB
  5
70CB
331
71D8
  5
71D8
331
7197
  5
7197
331
7082
  5
7082
331
7483
  5
7483
331
71E7
  5
71E7
331
71A6
  5
71A6
331
7091
  5
7091
331
74A2
  5
74A2
331
715D
  5
715D
331
711C
  5
711C
331
7231
  5
7231
331
71E8
  5
71E8
331
716C
  5
716C
331
712B
  5
712B
331
71F7
  5
71F7
331
70E2
  5
70E2
331
70A1
  5
70A1
331
71B6
  5
71B6
331
7B4
  5
7BF
331
74DA
  5
74DA
331
7206
  5
7206
331
70F1
  5
70F1
331
71C5
  5
71C5
331
70B0
  5
70B0
331
74E9
  5
74E9
331
717C
  5
717C
331
713B
  5
713B
331
70BF
  5
70BF
331
718B
  5
718B
331
714A
  5
714A
331
7BC
  5
7EF
331
7216
  5
7216
331
7101
  5
7101
331
71CD
  5
71CD
331
70C0
  5
70C0
331
74F9
  5
74F9
331
7225
  5
7225
331
7110
  5
7110
331
77A
  5
785
331
70CF
  5
70CF
331
71DC
  5
71DC
331
7086
  5
7086
331
719B
  5
719B
331
789
  5
795
331
7152
  5
7152
331
71AA
  5
71AA
331
7095
  5
7095
331
7161
  5
7161
331
7235
  5
7235
331
7120
  5
7120
331
71EC
  5
71EC
331
712F
  5
712F
331
71FB
  5
71FB
331
70E6
  5
70E6
331
799
  5
7A4
331
70A5
  5
70A5
331
71BA
  5
71BA
331
74DE
  5
74DE
331
7171
  5
7171
331
70F5
  5
70F5
331
70B4
  5
70B4
331
74ED
  5
74ED
331
7180
  5
7180
331
713F
  5
713F
331
76E
  5
779
331
720B
  5
720B
331
718F
  5
718F
331
714E
  5
714E
331
721A
  5
721A
331
7105
  5
7105
331
7C0
  5
805
331
70C4
  5
70C4
331
71D1
  5
71D1
331
7190
  5
7190
331
7114
  5
7114
331
70D3
  5
70D3
331
71E0
  5
71E0
331
719F
  5
719F
331
7156
  5
7156
331
722A
  5
722A
331
71AE
  5
71AE
331
7099
  5
7099
331
7165
  5
7165
331
7239
  5
7239
331
7124
  5
7124
331
70DB
  5
70DB
331
71F0
  5
71F0
331
7133
  5
7133
331
71FF
  5
71FF
331
70EA
  5
70EA
331
79D
  5
7A9
331
71BE
  5
71BE
331
70A9
  5
70A9
331
7175
  5
7175
331
74E2
  5
74E2
331
7241
  5
7241
331
70B8
  5
70B8
331
74F1
  5
74F1
331
7184
  5
7184
331
7143
  5
7143
331
720F
  5
720F
331
70FA
  5
70FA
331
747F
  5
747F
331
14DD
  5
14F0
331
721E
  5
721E
331
7109
  5
7109
331
70C8
  5
70C8
331
71D5
  5
71D5
331
773
  5
77E
331
7194
  5
7194
331
7501
  5
7501
331
70D7
  5
70D7
331
71E4
  5
71E4
331
782
  5
78D
331
71A3
  5
71A3
331
708E
  5
708E
331
715A
  5
715A
331
7119
  5
7119
331
722E
  5
722E
331
709D
  5
709D
331
74D6
  5
74D6
331
7169
  5
7169
331
723D
  5
723D
331
7128
  5
7128
331
70DF
  5
70DF
331
71F4
  5
71F4
331
71B3
  5
71B3
331
7137
  5
7137
331
7203
  5
7203
331
70EE
  5
70EE
331
71C2
  5
71C2
331
70AD
  5
70AD
331
74E6
  5
74E6
331
7179
  5
7179
331
7245
  5
7245
331
7138
  5
7138
331
70BC
  5
70BC
331
74F5
  5
74F5
331
7188
  5
7188
331
7147
  5
7147
331
746C
  5
746C
331
70FE
  5
70FE
331
7213
  5
7213
331
7B9
  5
7C9
331
71CA
  5
71CA
331
7222
  5
7222
331
710D
  5
710D
331
70CC
  5
70CC
331
71D9
  5
71D9
331
777
  5
782
331
7198
  5
7198
331
71A7
  5
71A7
331
7092
  5
7092
331
74A3
  5
74A3
331
715E
  5
715E
331
711D
  5
711D
331
7232
  5
7232
331
71E9
  5
71E9
331
716D
  5
716D
331
712C
  5
712C
331
71F8
  5
71F8
331
70E3
  5
70E3
331
70A2
  5
70A2
331
71B7
  5
71B7
331
74DB
  5
74DB
331
7207
  5
7207
331
70F2
  5
70F2
331
71C6
  5
71C6
331
70B1
  5
70B1
331
74EA
  5
74EA
331
717D
  5
717D
331
713C
  5
713C
331
7208
  5
7208
331
718C
  5
718C
331
714B
  5
714B
331
7217
  5
7217
331
7102
  5
7102
331
7BD
  5
7F1
331
71CE
  5
71CE
331
70C1
  5
70C1
331
74FA
  5
74FA
331
7226
  5
7226
331
7111
  5
7111
331
70D0
  5
70D0
331
71DD
  5
71DD
331
77B
  5
786
331
7087
  5
7087
331
719C
  5
719C
331
7153
  5
7153
331
7488
  5
7488
331
78A
  5
796
331
71AB
  5
71AB
331
7096
  5
7096
331
7162
  5
7162
331
7236
  5
7236
331
7121
  5
7121
331
71ED
  5
71ED
331
70D8
  5
70D8
  0
XRECORD
  5
9433
102
{ACAD_REACTORS
330
213F
102
}
330
213F
100
AcDbXrecord
340
1A
  0
MLINESTYLE
  5
17
102
{ACAD_REACTORS
330
16
102
}
330
16
100
AcDbMlineStyle
  2
STANDARD
 70
     0
  3

 62
   256
 51
90.0
 52
90.0
 71
     2
 49
0.5
 62
   256
  6
BYLAYER
 49
-0.5
 62
   256
  6
BYLAYER
  0
ACDBPLACEHOLDER
  5
F
102
{ACAD_REACTORS
330
E
102
}
330
E
100
AcDbPlaceHolder
280
     0
  0
ACAD_PROXY_OBJECT
  5
20BD
102
{ACAD_REACTORS
330
20BC
102
}
330
20BC
100
AcDbProxyObject
 90
      499
 91
      506
 93
     1841
310
4214DD185B99185C9928B81E85EB51B8AE3F2E07A17AD46E2B8FC02B5E8DC0F42B1CFD028000000C1008070000C3001FDFF8000000C1003FBFF000000182007F7FE00000030400FEFFC00000060801FDFF8000000C1003FBFF00000018200000000000000681FA0B0000001820100E000186003FBFF000000182007F7FE000
310
00030400FEFFC00000060801FDFF8000000C1003FBFF000000182007F7FE000000304000AD7A3703D0AC73F4160000003040201C00030C007F7FE00000030400FEFFC00000060801FDFF8000000C1003FBFF000000182007F7FE00000030400FEFFC000000608000
340
11
340
11
340
11
 94
        0
1001
ACAD
1000
AcadProxyRoundTripData
1071
      504
1071
   393239
1070
     0
  0
DICTIONARYVAR
  5
20D0
102
{ACAD_REACTORS
330
F2D
102
}
330
F2D
100
DictionaryVariables
280
     0
  1
STANDARD
  0
DICTIONARYVAR
  5
20D1
102
{ACAD_REACTORS
330
F2D
102
}
330
F2D
100
DictionaryVariables
280
     0
  1
1
  0
DICTIONARYVAR
  5
20D2
102
{ACAD_REACTORS
330
F2D
102
}
330
F2D
100
DictionaryVariables
280
     0
  1

  0
DICTIONARYVAR
  5
F2E
102
{ACAD_REACTORS
330
F2D
102
}
330
F2D
100
DictionaryVariables
280
     0
  1
96
  0
XRECORD
  5
9413
102
{ACAD_REACTORS
330
9412
102
}
330
9412
100
AcDbXrecord
 90
        1
  0
XRECORD
  5
9414
102
{ACAD_REACTORS
330
9412
102
}
330
9412
100
AcDbXrecord
 90
       70
  0
XRECORD
  5
9415
102
{ACAD_REACTORS
330
9412
102
}
330
9412
100
AcDbXrecord
  1

  0
XRECORD
  5
9416
102
{ACAD_REACTORS
330
9412
102
}
330
9412
100
AcDbXrecord
  1
1.ctb
  0
XRECORD
  5
9417
102
{ACAD_REACTORS
330
9412
102
}
330
9412
100
AcDbXrecord
340
19
  0
XRECORD
  5
9418
102
{ACAD_REACTORS
330
9412
102
}
330
9412
100
AcDbXrecord
340
18
  0
XRECORD
  5
9419
102
{ACAD_REACTORS
330
9412
102
}
330
9412
100
AcDbXrecord
340
E
  0
XRECORD
  5
941A
102
{ACAD_REACTORS
330
9412
102
}
330
9412
100
AcDbXrecord
 90
    10781
  0
XRECORD
  5
941B
102
{ACAD_REACTORS
330
9412
102
}
330
9412
100
AcDbXrecord
 90
        0
  0
XRECORD
  5
941C
102
{ACAD_REACTORS
330
9412
102
}
330
9412
100
AcDbXrecord
 90
        0
  0
XRECORD
  5
941D
102
{ACAD_REACTORS
330
9412
102
}
330
9412
100
AcDbXrecord
  1
{818ED101-7535-495B-8393-2B0634FA605B}
  0
XRECORD
  5
941E
102
{ACAD_REACTORS
330
9412
102
}
330
9412
100
AcDbXrecord
  1
{93EB78E7-B3BE-4A93-8868-BFB20C601AD8}
  0
XRECORD
  5
941F
102
{ACAD_REACTORS
330
9412
102
}
330
9412
100
AcDbXrecord
 40
0.0
  0
XRECORD
  5
9420
102
{ACAD_REACTORS
330
9412
102
}
330
9412
100
AcDbXrecord
1000
DSTYLE
1002
{
1070
    79
 70
     2
1070
   179
 70
     1
1070
   341
340
8E2
1070
   342
340
8E2
1002
}
  0
XRECORD
  5
9421
102
{ACAD_REACTORS
330
9412
102
}
330
9412
100
AcDbXrecord
340
0
  0
XRECORD
  5
9422
102
{ACAD_REACTORS
330
9412
102
}
330
9412
100
AcDbXrecord
 70
     0
  0
XRECORD
  5
9423
102
{ACAD_REACTORS
330
9412
102
}
330
9412
100
AcDbXrecord
340
0
  0
XRECORD
  5
9424
102
{ACAD_REACTORS
330
9412
102
}
330
9412
100
AcDbXrecord
 10
0.0
 20
0.0
 30
0.0
  0
XRECORD
  5
9425
102
{ACAD_REACTORS
330
9412
102
}
330
9412
100
AcDbXrecord
 10
0.0
 20
0.0
 30
0.0
  0
XRECORD
  5
9426
102
{ACAD_REACTORS
330
9412
102
}
330
9412
100
AcDbXrecord
 10
0.0
 20
0.0
 30
0.0
  0
XRECORD
  5
9427
102
{ACAD_REACTORS
330
9412
102
}
330
9412
100
AcDbXrecord
 10
0.0
 20
0.0
 30
0.0
  0
XRECORD
  5
9428
102
{ACAD_REACTORS
330
9412
102
}
330
9412
100
AcDbXrecord
 10
0.0
 20
0.0
 30
0.0
  0
XRECORD
  5
9429
102
{ACAD_REACTORS
330
9412
102
}
330
9412
100
AcDbXrecord
 10
0.0
 20
0.0
 30
0.0
  0
XRECORD
  5
942A
102
{ACAD_REACTORS
330
9412
102
}
330
9412
100
AcDbXrecord
340
0
  0
XRECORD
  5
942B
102
{ACAD_REACTORS
330
9412
102
}
330
9412
100
AcDbXrecord
 70
     0
  0
XRECORD
  5
942C
102
{ACAD_REACTORS
330
9412
102
}
330
9412
100
AcDbXrecord
340
0
  0
XRECORD
  5
942D
102
{ACAD_REACTORS
330
9412
102
}
330
9412
100
AcDbXrecord
 10
0.0
 20
0.0
 30
0.0
  0
XRECORD
  5
942E
102
{ACAD_REACTORS
330
9412
102
}
330
9412
100
AcDbXrecord
 10
0.0
 20
0.0
 30
0.0
  0
XRECORD
  5
942F
102
{ACAD_REACTORS
330
9412
102
}
330
9412
100
AcDbXrecord
 10
0.0
 20
0.0
 30
0.0
  0
XRECORD
  5
9430
102
{ACAD_REACTORS
330
9412
102
}
330
9412
100
AcDbXrecord
 10
0.0
 20
0.0
 30
0.0
  0
XRECORD
  5
9431
102
{ACAD_REACTORS
330
9412
102
}
330
9412
100
AcDbXrecord
 10
0.0
 20
0.0
 30
0.0
  0
XRECORD
  5
9432
102
{ACAD_REACTORS
330
9412
102
}
330
9412
100
AcDbXrecord
 10
0.0
 20
0.0
 30
0.0
  0
ENDSEC
  0
EOF
